  0
SECTION
  2
HEADER
  9
$ACADVER
  1
AC1027
  9
$ACADMAINTVER
 70
   125
  9
$DWGCODEPAGE
  3
ANSI_932
  9
$LASTSAVEDBY
  1
Kuwahara
  9
$REQUIREDVERSIONS
160
                 0
  9
$INSBASE
 10
0.0
 20
0.0
 30
0.0
  9
$EXTMIN
 10
-462.5
 20
-757.5
 30
0.0
  9
$EXTMAX
 10
13397.88156566239
 20
2680.43123899647
 30
0.0
  9
$LIMMIN
 10
0.0
 20
0.0
  9
$LIMMAX
 10
12.0
 20
9.0
  9
$ORTHOMODE
 70
     0
  9
$REGENMODE
 70
     1
  9
$FILLMODE
 70
     1
  9
$QTEXTMODE
 70
     0
  9
$MIRRTEXT
 70
     1
  9
$LTSCALE
 40
1.0
  9
$ATTMODE
 70
     1
  9
$TEXTSIZE
 40
0.2
  9
$TRACEWID
 40
0.05
  9
$TEXTSTYLE
  7
Standard
  9
$CLAYER
  8
0
  9
$CELTYPE
  6
ByLayer
  9
$CECOLOR
 62
   256
  9
$CELTSCALE
 40
1.0
  9
$DISPSILH
 70
     0
  9
$DIMSCALE
 40
1.0
  9
$DIMASZ
 40
0.18
  9
$DIMEXO
 40
0.0625
  9
$DIMDLI
 40
0.38
  9
$DIMRND
 40
0.0
  9
$DIMDLE
 40
0.0
  9
$DIMEXE
 40
0.18
  9
$DIMTP
 40
0.0
  9
$DIMTM
 40
0.0
  9
$DIMTXT
 40
0.18
  9
$DIMCEN
 40
0.09
  9
$DIMTSZ
 40
0.0
  9
$DIMTOL
 70
     0
  9
$DIMLIM
 70
     0
  9
$DIMTIH
 70
     1
  9
$DIMTOH
 70
     1
  9
$DIMSE1
 70
     0
  9
$DIMSE2
 70
     0
  9
$DIMTAD
 70
     0
  9
$DIMZIN
 70
     0
  9
$DIMBLK
  1

  9
$DIMASO
 70
     1
  9
$DIMSHO
 70
     1
  9
$DIMPOST
  1

  9
$DIMAPOST
  1

  9
$DIMALT
 70
     0
  9
$DIMALTD
 70
     2
  9
$DIMALTF
 40
25.4
  9
$DIMLFAC
 40
1.0
  9
$DIMTOFL
 70
     0
  9
$DIMTVP
 40
0.0
  9
$DIMTIX
 70
     0
  9
$DIMSOXD
 70
     0
  9
$DIMSAH
 70
     0
  9
$DIMBLK1
  1

  9
$DIMBLK2
  1

  9
$DIMSTYLE
  2
Standard
  9
$DIMCLRD
 70
     0
  9
$DIMCLRE
 70
     0
  9
$DIMCLRT
 70
     0
  9
$DIMTFAC
 40
1.0
  9
$DIMGAP
 40
0.09
  9
$DIMJUST
 70
     0
  9
$DIMSD1
 70
     0
  9
$DIMSD2
 70
     0
  9
$DIMTOLJ
 70
     1
  9
$DIMTZIN
 70
     0
  9
$DIMALTZ
 70
     0
  9
$DIMALTTZ
 70
     0
  9
$DIMUPT
 70
     0
  9
$DIMDEC
 70
     4
  9
$DIMTDEC
 70
     4
  9
$DIMALTU
 70
     2
  9
$DIMALTTD
 70
     2
  9
$DIMTXSTY
  7
Standard
  9
$DIMAUNIT
 70
     0
  9
$DIMADEC
 70
     0
  9
$DIMALTRND
 40
0.0
  9
$DIMAZIN
 70
     0
  9
$DIMDSEP
 70
    46
  9
$DIMATFIT
 70
     3
  9
$DIMFRAC
 70
     0
  9
$DIMLDRBLK
  1

  9
$DIMLUNIT
 70
     2
  9
$DIMLWD
 70
    -2
  9
$DIMLWE
 70
    -2
  9
$DIMTMOVE
 70
     0
  9
$DIMFXL
 40
1.0
  9
$DIMFXLON
 70
     0
  9
$DIMJOGANG
 40
0.7853981633974483
  9
$DIMTFILL
 70
     0
  9
$DIMTFILLCLR
 70
     0
  9
$DIMARCSYM
 70
     0
  9
$DIMLTYPE
  6

  9
$DIMLTEX1
  6

  9
$DIMLTEX2
  6

  9
$DIMTXTDIRECTION
 70
     0
  9
$LUNITS
 70
     2
  9
$LUPREC
 70
     4
  9
$SKETCHINC
 40
0.1
  9
$FILLETRAD
 40
0.5
  9
$AUNITS
 70
     0
  9
$AUPREC
 70
     0
  9
$MENU
  1
.
  9
$ELEVATION
 40
0.0
  9
$PELEVATION
 40
0.0
  9
$THICKNESS
 40
0.0
  9
$LIMCHECK
 70
     0
  9
$CHAMFERA
 40
0.0
  9
$CHAMFERB
 40
0.0
  9
$CHAMFERC
 40
0.0
  9
$CHAMFERD
 40
0.0
  9
$SKPOLY
 70
     0
  9
$TDCREATE
 40
2459082.360636574
  9
$TDUCREATE
 40
2459081.985640892
  9
$TDUPDATE
 40
2459082.719918982
  9
$TDUUPDATE
 40
2459082.344918982
  9
$TDINDWG
 40
0.0010416782
  9
$TDUSRTIMER
 40
0.0010416782
  9
$USRTIMER
 70
     1
  9
$ANGBASE
 50
0.0
  9
$ANGDIR
 70
     0
  9
$PDMODE
 70
     0
  9
$PDSIZE
 40
0.0
  9
$PLINEWID
 40
0.0
  9
$SPLFRAME
 70
     0
  9
$SPLINETYPE
 70
     6
  9
$SPLINESEGS
 70
     8
  9
$HANDSEED
  5
44B
  9
$SURFTAB1
 70
     6
  9
$SURFTAB2
 70
     6
  9
$SURFTYPE
 70
     6
  9
$SURFU
 70
     6
  9
$SURFV
 70
     6
  9
$UCSBASE
  2

  9
$UCSNAME
  2

  9
$UCSORG
 10
0.0
 20
0.0
 30
0.0
  9
$UCSXDIR
 10
1.0
 20
0.0
 30
0.0
  9
$UCSYDIR
 10
0.0
 20
1.0
 30
0.0
  9
$UCSORTHOREF
  2

  9
$UCSORTHOVIEW
 70
     0
  9
$UCSORGTOP
 10
0.0
 20
0.0
 30
0.0
  9
$UCSORGBOTTOM
 10
0.0
 20
0.0
 30
0.0
  9
$UCSORGLEFT
 10
0.0
 20
0.0
 30
0.0
  9
$UCSORGRIGHT
 10
0.0
 20
0.0
 30
0.0
  9
$UCSORGFRONT
 10
0.0
 20
0.0
 30
0.0
  9
$UCSORGBACK
 10
0.0
 20
0.0
 30
0.0
  9
$PUCSBASE
  2

  9
$PUCSNAME
  2

  9
$PUCSORG
 10
0.0
 20
0.0
 30
0.0
  9
$PUCSXDIR
 10
1.0
 20
0.0
 30
0.0
  9
$PUCSYDIR
 10
0.0
 20
1.0
 30
0.0
  9
$PUCSORTHOREF
  2

  9
$PUCSORTHOVIEW
 70
     0
  9
$PUCSORGTOP
 10
0.0
 20
0.0
 30
0.0
  9
$PUCSORGBOTTOM
 10
0.0
 20
0.0
 30
0.0
  9
$PUCSORGLEFT
 10
0.0
 20
0.0
 30
0.0
  9
$PUCSORGRIGHT
 10
0.0
 20
0.0
 30
0.0
  9
$PUCSORGFRONT
 10
0.0
 20
0.0
 30
0.0
  9
$PUCSORGBACK
 10
0.0
 20
0.0
 30
0.0
  9
$USERI1
 70
     0
  9
$USERI2
 70
     0
  9
$USERI3
 70
     0
  9
$USERI4
 70
     0
  9
$USERI5
 70
     0
  9
$USERR1
 40
0.0
  9
$USERR2
 40
0.0
  9
$USERR3
 40
0.0
  9
$USERR4
 40
0.0
  9
$USERR5
 40
0.0
  9
$WORLDVIEW
 70
     1
  9
$SHADEDGE
 70
     3
  9
$SHADEDIF
 70
    70
  9
$TILEMODE
 70
     1
  9
$MAXACTVP
 70
    64
  9
$PINSBASE
 10
0.0
 20
0.0
 30
0.0
  9
$PLIMCHECK
 70
     0
  9
$PEXTMIN
 10
15.0
 20
15.0
 30
0.0
  9
$PEXTMAX
 10
404.9999999999999
 20
282.0
 30
0.0
  9
$PLIMMIN
 10
0.0
 20
0.0
  9
$PLIMMAX
 10
12.0
 20
9.0
  9
$UNITMODE
 70
     0
  9
$VISRETAIN
 70
     1
  9
$PLINEGEN
 70
     0
  9
$PSLTSCALE
 70
     0
  9
$TREEDEPTH
 70
  3020
  9
$CMLSTYLE
  2
Standard
  9
$CMLJUST
 70
     0
  9
$CMLSCALE
 40
1.0
  9
$PROXYGRAPHICS
 70
     1
  9
$MEASUREMENT
 70
     0
  9
$CELWEIGHT
370
    -1
  9
$ENDCAPS
280
     0
  9
$JOINSTYLE
280
     0
  9
$LWDISPLAY
290
     1
  9
$INSUNITS
 70
     4
  9
$HYPERLINKBASE
  1

  9
$STYLESHEET
  1

  9
$XEDIT
290
     1
  9
$CEPSNTYPE
380
     0
  9
$PSTYLEMODE
290
     1
  9
$FINGERPRINTGUID
  2
{1699fd92-f297-4d64-ab45-1841241ef83e}
  9
$VERSIONGUID
  2
{901C62FF-5A03-BB47-80AC-B60B92585B58}
  9
$EXTNAMES
290
     1
  9
$PSVPSCALE
 40
0.0
  9
$OLESTARTUP
290
     0
  9
$SORTENTS
280
   127
  9
$INDEXCTL
280
     0
  9
$HIDETEXT
280
     1
  9
$XCLIPFRAME
280
     0
  9
$HALOGAP
280
     0
  9
$OBSCOLOR
 70
   257
  9
$OBSLTYPE
280
     0
  9
$INTERSECTIONDISPLAY
280
     0
  9
$INTERSECTIONCOLOR
 70
   257
  9
$DIMASSOC
280
     2
  9
$PROJECTNAME
  1

  9
$CAMERADISPLAY
290
     0
  9
$LENSLENGTH
 40
50.0
  9
$CAMERAHEIGHT
 40
0.0
  9
$STEPSPERSEC
 40
2.0
  9
$STEPSIZE
 40
6.0
  9
$3DDWFPREC
 40
2.0
  9
$PSOLWIDTH
 40
0.25
  9
$PSOLHEIGHT
 40
4.0
  9
$LOFTANG1
 40
1.570796326794896
  9
$LOFTANG2
 40
1.570796326794896
  9
$LOFTMAG1
 40
0.0
  9
$LOFTMAG2
 40
0.0
  9
$LOFTPARAM
 70
     7
  9
$LOFTNORMALS
280
     1
  9
$LATITUDE
 40
37.795
  9
$LONGITUDE
 40
-122.394
  9
$NORTHDIRECTION
 40
0.0
  9
$TIMEZONE
 70
 -8000
  9
$LIGHTGLYPHDISPLAY
280
     1
  9
$TILEMODELIGHTSYNCH
280
     1
  9
$CMATERIAL
347
44
  9
$SOLIDHIST
280
     0
  9
$SHOWHIST
280
     1
  9
$DWFFRAME
280
     2
  9
$DGNFRAME
280
     2
  9
$REALWORLDSCALE
290
     1
  9
$INTERFERECOLOR
 62
   256
  9
$INTERFEREOBJVS
345
33
  9
$INTERFEREVPVS
346
30
  9
$CSHADOW
280
     0
  9
$SHADOWPLANELOCATION
 40
0.0
  0
ENDSEC
  0
SECTION
  2
CLASSES
  0
CLASS
  1
ACDBDICTIONARYWDFLT
  2
AcDbDictionaryWithDefault
  3
ObjectDBX Classes
 90
        0
 91
        1
280
     0
281
     0
  0
CLASS
  1
VISUALSTYLE
  2
AcDbVisualStyle
  3
ObjectDBX Classes
 90
     4095
 91
       24
280
     0
281
     0
  0
CLASS
  1
MATERIAL
  2
AcDbMaterial
  3
ObjectDBX Classes
 90
     1153
 91
        3
280
     0
281
     0
  0
CLASS
  1
SCALE
  2
AcDbScale
  3
ObjectDBX Classes
 90
     1153
 91
       33
280
     0
281
     0
  0
CLASS
  1
TABLESTYLE
  2
AcDbTableStyle
  3
ObjectDBX Classes
 90
     4095
 91
        1
280
     0
281
     0
  0
CLASS
  1
MLEADERSTYLE
  2
AcDbMLeaderStyle
  3
ACDB_MLEADERSTYLE_CLASS
 90
     4095
 91
        1
280
     0
281
     0
  0
CLASS
  1
SUN
  2
AcDbSun
  3
SCENEOE
 90
     1153
 91
        2
280
     0
281
     0
  0
CLASS
  1
WIPEOUT
  2
AcDbWipeout
  3
WipeOut|Product Desc: Object Enabler for WipeOut entity | Company: Autodesk, Inc. | WEB Address: www.autodesk.com
 90
     2175
 91
        6
280
     0
281
     1
  0
CLASS
  1
IMAGE
  2
AcDbRasterImage
  3
ISM
 90
     2175
 91
        1
280
     0
281
     1
  0
CLASS
  1
IMAGEDEF
  2
AcDbRasterImageDef
  3
ISM
 90
        0
 91
        1
280
     0
281
     0
  0
CLASS
  1
IMAGEDEF_REACTOR
  2
AcDbRasterImageDefReactor
  3
ISM
 90
        1
 91
        1
280
     0
281
     0
  0
CLASS
  1
SPATIAL_FILTER
  2
AcDbSpatialFilter
  3
ObjectDBX Classes
 90
        0
 91
        1
280
     0
281
     0
  0
CLASS
  1
DICTIONARYVAR
  2
AcDbDictionaryVar
  3
ObjectDBX Classes
 90
        0
 91
        8
280
     0
281
     0
  0
CLASS
  1
ACDBSECTIONVIEWSTYLE
  2
AcDbSectionViewStyle
  3
ObjectDBX Classes
 90
     1025
 91
        1
280
     0
281
     0
  0
CLASS
  1
ACDBDETAILVIEWSTYLE
  2
AcDbDetailViewStyle
  3
ObjectDBX Classes
 90
     1025
 91
        1
280
     0
281
     0
  0
CLASS
  1
WIPEOUTVARIABLES
  2
AcDbWipeoutVariables
  3
"WipeOut|Product Desc:     WipeOut Dbx Application|Company:          Autodesk, Inc.|WEB Address:      www.autodesk.com"
 90
        0
 91
        1
280
     0
281
     0
  0
CLASS
  1
RASTERVARIABLES
  2
AcDbRasterVariables
  3
ISM
 90
        0
 91
        1
280
     0
281
     0
  0
CLASS
  1
EXACXREFPANELOBJECT
  2
ExAcXREFPanelObject
  3
EXAC_ESW
 90
     1025
 91
        1
280
     0
281
     0
  0
CLASS
  1
NPOCOLLECTION
  2
AcDbImpNonPersistentObjectsCollection
  3
ObjectDBX Classes
 90
     1153
 91
        1
280
     0
281
     0
  0
CLASS
  1
RAPIDRTRENDERSETTINGS
  2
AcDbRapidRTRenderSettings
  3
ObjectDBX Classes
 90
     1024
 91
        7
280
     0
281
     0
  0
CLASS
  1
MENTALRAYRENDERSETTINGS
  2
AcDbMentalRayRenderSettings
  3
SCENEOE
 90
     1024
 91
        2
280
     0
281
     0
  0
CLASS
  1
CELLSTYLEMAP
  2
AcDbCellStyleMap
  3
ObjectDBX Classes
 90
     1152
 91
        1
280
     0
281
     0
  0
ENDSEC
  0
SECTION
  2
TABLES
  0
TABLE
  2
VPORT
  5
8
330
0
100
AcDbSymbolTable
 70
     1
1001
ACAD
1000
DbSaveVer
1071
      224
  0
VPORT
  5
29
330
8
100
AcDbSymbolTableRecord
100
AcDbViewportTableRecord
  2
*Active
 70
     0
 10
0.0
 20
0.0
 11
1.0
 21
1.0
 12
6451.523463910177
 22
154.7667669759348
 13
0.0
 23
0.0
 14
0.5
 24
0.5
 15
0.5
 25
0.5
 16
0.0
 26
0.0
 36
1.0
 17
0.0
 27
0.0
 37
0.0
 40
9764.153828041258
 41
2.292978208232445
 42
50.0
 43
0.0
 44
0.0
 50
0.0
 51
0.0
 71
     0
 72
   100
 73
     1
 74
     3
 75
     0
 76
     0
 77
     0
 78
     0
281
     0
 65
     1
110
0.0
120
0.0
130
0.0
111
1.0
121
0.0
131
0.0
112
0.0
122
1.0
132
0.0
 79
     0
146
0.0
348
2F
 60
     3
 61
     5
292
     1
282
     1
141
0.0
142
0.0
361
6D
1001
ACAD_NAV_VCDISPLAY
1070
     3
  0
ENDTAB
  0
TABLE
  2
LTYPE
  5
5
330
0
100
AcDbSymbolTable
 70
     3
  0
LTYPE
  5
14
330
5
100
AcDbSymbolTableRecord
100
AcDbLinetypeTableRecord
  2
ByBlock
 70
     0
  3

 72
    65
 73
     0
 40
0.0
  0
LTYPE
  5
15
330
5
100
AcDbSymbolTableRecord
100
AcDbLinetypeTableRecord
  2
ByLayer
 70
     0
  3

 72
    65
 73
     0
 40
0.0
  0
LTYPE
  5
16
330
5
100
AcDbSymbolTableRecord
100
AcDbLinetypeTableRecord
  2
Continuous
 70
     0
  3
Solid line
 72
    65
 73
     0
 40
0.0
  0
LTYPE
  5
75
330
5
100
AcDbSymbolTableRecord
100
AcDbLinetypeTableRecord
  2
Wipeout_Contour
 70
     0
  3
- - - - - 
 72
    65
 73
     2
 40
1000.0
 49
0.0
 74
     0
 49
-1000.0
 74
     0
  0
LTYPE
  5
81
330
5
100
AcDbSymbolTableRecord
100
AcDbLinetypeTableRecord
  2
_点線(0.4-0.4)
 70
     0
  3
- - - - - 
 72
    65
 73
     2
 40
24.0
 49
12.0
 74
     0
 49
-12.0
 74
     0
  0
ENDTAB
  0
TABLE
  2
LAYER
  5
2
102
{ACAD_XDICTIONARY
360
3B5
102
}
330
0
100
AcDbSymbolTable
 70
    16
  0
LAYER
  5
10
330
2
100
AcDbSymbolTableRecord
100
AcDbLayerTableRecord
  2
0
 70
     0
 62
     7
  6
Continuous
370
    -3
390
F
347
46
348
0
  0
LAYER
  5
70
330
2
100
AcDbSymbolTableRecord
100
AcDbLayerTableRecord
  2
_パネル本体.OTHC-500
 70
     0
 62
     7
  6
Continuous
370
    -3
390
F
347
46
348
0
  0
LAYER
  5
76
330
2
100
AcDbSymbolTableRecord
100
AcDbLayerTableRecord
  2
_支柱.OTHC-500
 70
     0
 62
     7
  6
Continuous
370
    -3
390
F
347
46
348
0
  0
LAYER
  5
7D
330
2
100
AcDbSymbolTableRecord
100
AcDbLayerTableRecord
  2
_キャスター.OTHC-500
 70
     0
 62
     7
  6
Continuous
370
    -3
390
F
347
46
348
0
  0
LAYER
  5
83
330
2
100
AcDbSymbolTableRecord
100
AcDbLayerTableRecord
  2
_パネル上部.OTHC-500
 70
     0
 62
     7
  6
Continuous
370
    -3
390
F
347
46
348
0
  0
LAYER
  5
A1
330
2
100
AcDbSymbolTableRecord
100
AcDbLayerTableRecord
  2
_補強リブ.OTHC-500
 70
     0
 62
     7
  6
Continuous
370
    -3
390
F
347
46
348
0
  0
LAYER
  5
E0
330
2
100
AcDbSymbolTableRecord
100
AcDbLayerTableRecord
  2
_脚.OTHC-500
 70
     0
 62
     7
  6
Continuous
370
    -3
390
F
347
46
348
0
  0
LAYER
  5
E4
330
2
100
AcDbSymbolTableRecord
100
AcDbLayerTableRecord
  2
_脚先端.OTHC-500
 70
     0
 62
     7
  6
Continuous
370
    -3
390
F
347
46
348
0
  0
LAYER
  5
FC
330
2
100
AcDbSymbolTableRecord
100
AcDbLayerTableRecord
  2
_補強残.OTHC-500
 70
     0
 62
     7
  6
Continuous
370
    -3
390
F
347
46
348
0
  0
LAYER
  5
118
330
2
100
AcDbSymbolTableRecord
100
AcDbLayerTableRecord
  2
_2D寸法.2D
 70
     0
 62
     7
  6
Continuous
370
    -3
390
F
347
46
348
0
  0
LAYER
  5
1A4
330
2
100
AcDbSymbolTableRecord
100
AcDbLayerTableRecord
  2
#2D_OTHC-500.2D
 70
     0
 62
     7
  6
Continuous
370
    -3
390
F
347
46
348
0
  0
LAYER
  5
26F
330
2
100
AcDbSymbolTableRecord
100
AcDbLayerTableRecord
  2
_2Dテキスト.2D
 70
     0
 62
     7
  6
Continuous
370
    -3
390
F
347
46
348
0
  0
LAYER
  5
362
330
2
100
AcDbSymbolTableRecord
100
AcDbLayerTableRecord
  2
#2Dマスタレイアウト.2D
 70
     0
 62
     7
  6
Continuous
370
    -3
390
F
347
46
348
0
  0
LAYER
  5
365
330
2
100
AcDbSymbolTableRecord
100
AcDbLayerTableRecord
  2
テキスト
 70
     0
 62
     7
  6
Continuous
370
    -3
390
F
347
46
348
0
  0
LAYER
  5
367
330
2
100
AcDbSymbolTableRecord
100
AcDbLayerTableRecord
  2
NonPlottable_図面
 70
     0
 62
     7
  6
Continuous
290
     0
370
    -3
390
F
347
46
348
0
  0
LAYER
  5
36A
330
2
100
AcDbSymbolTableRecord
100
AcDbLayerTableRecord
  2
図面
 70
     0
 62
     7
  6
Continuous
370
    -3
390
F
347
46
348
0
  0
ENDTAB
  0
TABLE
  2
STYLE
  5
3
330
0
100
AcDbSymbolTable
 70
     2
  0
STYLE
  5
11
330
3
100
AcDbSymbolTableRecord
100
AcDbTextStyleTableRecord
  2
Standard
 70
     0
 40
0.0
 41
1.0
 50
0.0
 71
     0
 42
0.2
  3
txt
  4
EXTFONT.SHX
  0
STYLE
  5
121
330
3
100
AcDbSymbolTableRecord
100
AcDbTextStyleTableRecord
  2
GENERATED_STYLE_1
 70
     0
 40
0.0
 41
1.0
 50
0.0
 71
     0
 42
0.2
  3

  4

1001
ACAD
1000
MS Gothic
1071
    32821
  0
ENDTAB
  0
TABLE
  2
VIEW
  5
6
330
0
100
AcDbSymbolTable
 70
     1
  0
ENDTAB
  0
TABLE
  2
UCS
  5
7
330
0
100
AcDbSymbolTable
 70
     0
  0
ENDTAB
  0
TABLE
  2
APPID
  5
9
330
0
100
AcDbSymbolTable
 70
     2
  0
APPID
  5
12
330
9
100
AcDbSymbolTableRecord
100
AcDbRegAppTableRecord
  2
ACAD
 70
     0
  0
APPID
  5
3BA
330
9
100
AcDbSymbolTableRecord
100
AcDbRegAppTableRecord
  2
ACAD_NAV_VCDISPLAY
 70
     0
  0
ENDTAB
  0
TABLE
  2
DIMSTYLE
  5
A
330
0
100
AcDbSymbolTable
 70
     6
100
AcDbDimStyleTable
 71
     0
  0
DIMSTYLE
105
27
330
A
100
AcDbSymbolTableRecord
100
AcDbDimStyleTableRecord
  2
Standard
 70
     0
340
11
  0
DIMSTYLE
105
124
102
{ACAD_REACTORS
330
123
330
2ED
102
}
330
A
100
AcDbSymbolTableRecord
100
AcDbDimStyleTableRecord
  2
GENERATED_STYLE__1
 70
     0
 41
28.5
 42
150.0
 77
     1
140
90.0
172
     1
176
     5
177
     5
178
     7
179
     2
271
     1
288
     1
340
121
342
125
343
125
344
125
  0
DIMSTYLE
105
138
102
{ACAD_REACTORS
330
137
102
}
330
A
100
AcDbSymbolTableRecord
100
AcDbDimStyleTableRecord
  2
GENERATED_STYLE__2
 70
     0
 41
28.5
 42
150.0
 73
     0
 74
     0
 77
     1
140
90.0
172
     1
176
     5
177
     5
178
     7
179
     2
271
     1
288
     1
340
121
342
125
343
125
344
125
  0
DIMSTYLE
105
1B8
102
{ACAD_REACTORS
330
1B7
330
1FD
330
20B
330
219
102
}
330
A
100
AcDbSymbolTableRecord
100
AcDbDimStyleTableRecord
  2
GENERATED_STYLE__3
 70
     0
 41
28.5
 42
150.0
 77
     1
140
75.0
172
     1
176
     5
177
     5
178
     7
179
     2
271
     1
288
     1
340
121
342
125
343
125
344
125
  0
DIMSTYLE
105
1C7
102
{ACAD_REACTORS
330
1C6
330
1D4
330
1E1
330
1EF
330
227
330
235
330
243
330
252
330
25F
330
26D
102
}
330
A
100
AcDbSymbolTableRecord
100
AcDbDimStyleTableRecord
  2
GENERATED_STYLE__4
 70
     0
 41
28.5
 42
150.0
 73
     0
 74
     0
 77
     1
140
75.0
172
     1
176
     5
177
     5
178
     7
179
     2
271
     1
288
     1
340
121
342
125
343
125
344
125
  0
DIMSTYLE
105
273
330
A
100
AcDbSymbolTableRecord
100
AcDbDimStyleTableRecord
  2
GENERATED_STYLE__5
 70
     0
 41
27.36
172
     1
341
125
  0
ENDTAB
  0
TABLE
  2
BLOCK_RECORD
  5
1
330
0
100
AcDbSymbolTable
 70
    19
  0
BLOCK_RECORD
  5
1F
330
1
100
AcDbSymbolTableRecord
100
AcDbBlockTableRecord
  2
*Model_Space
340
22
 70
     0
280
     1
281
     0
  0
BLOCK_RECORD
  5
1B
330
1
100
AcDbSymbolTableRecord
100
AcDbBlockTableRecord
  2
*Paper_Space
340
1E
 70
     0
280
     1
281
     0
  0
BLOCK_RECORD
  5
114
330
1
100
AcDbSymbolTableRecord
100
AcDbBlockTableRecord
  2
*D0
340
0
 70
     0
280
     1
281
     0
  0
BLOCK_RECORD
  5
125
330
1
100
AcDbSymbolTableRecord
100
AcDbBlockTableRecord
  2
ARROWHEAD_11
340
0
 70
     0
280
     1
281
     0
  0
BLOCK_RECORD
  5
12A
330
1
100
AcDbSymbolTableRecord
100
AcDbBlockTableRecord
  2
*D2
340
0
 70
     0
280
     1
281
     0
  0
BLOCK_RECORD
  5
1AA
330
1
100
AcDbSymbolTableRecord
100
AcDbBlockTableRecord
  2
*D3
340
0
 70
     0
280
     1
281
     0
  0
BLOCK_RECORD
  5
1B9
330
1
100
AcDbSymbolTableRecord
100
AcDbBlockTableRecord
  2
*D4
340
0
 70
     0
280
     1
281
     0
  0
BLOCK_RECORD
  5
1C8
330
1
100
AcDbSymbolTableRecord
100
AcDbBlockTableRecord
  2
*D5
340
0
 70
     0
280
     1
281
     0
  0
BLOCK_RECORD
  5
1D5
330
1
100
AcDbSymbolTableRecord
100
AcDbBlockTableRecord
  2
*D6
340
0
 70
     0
280
     1
281
     0
  0
BLOCK_RECORD
  5
1E2
330
1
100
AcDbSymbolTableRecord
100
AcDbBlockTableRecord
  2
*D7
340
0
 70
     0
280
     1
281
     0
  0
BLOCK_RECORD
  5
1F0
330
1
100
AcDbSymbolTableRecord
100
AcDbBlockTableRecord
  2
*D8
340
0
 70
     0
280
     1
281
     0
  0
BLOCK_RECORD
  5
1FE
330
1
100
AcDbSymbolTableRecord
100
AcDbBlockTableRecord
  2
*D9
340
0
 70
     0
280
     1
281
     0
  0
BLOCK_RECORD
  5
20C
330
1
100
AcDbSymbolTableRecord
100
AcDbBlockTableRecord
  2
*D10
340
0
 70
     0
280
     1
281
     0
  0
BLOCK_RECORD
  5
21A
330
1
100
AcDbSymbolTableRecord
100
AcDbBlockTableRecord
  2
*D11
340
0
 70
     0
280
     1
281
     0
  0
BLOCK_RECORD
  5
228
330
1
100
AcDbSymbolTableRecord
100
AcDbBlockTableRecord
  2
*D12
340
0
 70
     0
280
     1
281
     0
  0
BLOCK_RECORD
  5
236
330
1
100
AcDbSymbolTableRecord
100
AcDbBlockTableRecord
  2
*D13
340
0
 70
     0
280
     1
281
     0
  0
BLOCK_RECORD
  5
244
330
1
100
AcDbSymbolTableRecord
100
AcDbBlockTableRecord
  2
*D14
340
0
 70
     0
280
     1
281
     0
  0
BLOCK_RECORD
  5
253
330
1
100
AcDbSymbolTableRecord
100
AcDbBlockTableRecord
  2
*D15
340
0
 70
     0
280
     1
281
     0
  0
BLOCK_RECORD
  5
260
330
1
100
AcDbSymbolTableRecord
100
AcDbBlockTableRecord
  2
*D16
340
0
 70
     0
280
     1
281
     0
  0
BLOCK_RECORD
  5
2E0
330
1
100
AcDbSymbolTableRecord
100
AcDbBlockTableRecord
  2
*D17
340
0
 70
     0
280
     1
281
     0
  0
BLOCK_RECORD
  5
378
330
1
100
AcDbSymbolTableRecord
100
AcDbBlockTableRecord
  2
図面_1_4
340
0
102
{BLKREFS
331
37F
102
}
 70
     0
280
     1
281
     0
  0
ENDTAB
  0
ENDSEC
  0
SECTION
  2
BLOCKS
  0
BLOCK
  5
20
330
1F
100
AcDbEntity
  8
0
100
AcDbBlockBegin
  2
*Model_Space
 70
     0
 10
0.0
 20
0.0
 30
0.0
  3
*Model_Space
  1

  0
ENDBLK
  5
21
330
1F
100
AcDbEntity
  8
0
100
AcDbBlockEnd
  0
BLOCK
  5
1C
330
1B
100
AcDbEntity
 67
     1
  8
0
100
AcDbBlockBegin
  2
*Paper_Space
 70
     0
 10
0.0
 20
0.0
 30
0.0
  3
*Paper_Space
  1

  0
ENDBLK
  5
1D
330
1B
100
AcDbEntity
 67
     1
  8
0
100
AcDbBlockEnd
  0
BLOCK
  5
115
330
114
100
AcDbEntity
  8
0
100
AcDbBlockBegin
  2
*D0
 70
     1
 10
0.0
 20
0.0
 30
0.0
  3
*D0
  1

  0
LINE
  5
117
330
114
100
AcDbEntity
  8
_2D寸法.2D
  6
Continuous
 62
     5
440
 16777216
370
     5
100
AcDbLine
 10
-447.5
 20
-750.0
 30
0.0
 11
447.5
 21
-750.0
 31
0.0
  0
CIRCLE
  5
119
330
114
100
AcDbEntity
  8
_2D寸法.2D
  6
Continuous
 62
     5
440
 16777216
370
     5
100
AcDbCircle
 10
-455.0
 20
-750.0
 30
0.0
 40
7.5
  0
HATCH
  5
11A
330
114
100
AcDbEntity
  8
_2D寸法.2D
  6
Continuous
 62
     5
440
 16777216
370
     5
100
AcDbHatch
 10
0.0
 20
0.0
 30
0.0
210
0.0
220
0.0
230
1.0
  2
SOLID
 70
     1
 71
     0
 91
        1
 92
        3
 72
     0
 73
     1
 93
       16
 10
-462.5
 20
-750.0
 10
-461.9290964076246
 20
-752.8701257510191
 10
-460.3033009083756
 20
-755.3033009083756
 10
-457.8701257510192
 20
-756.9290964076246
 10
-455.0
 20
-757.5
 10
-452.1298742489807
 20
-756.9290964076246
 10
-449.6966990916243
 20
-755.3033009083756
 10
-448.0709035923753
 20
-752.8701257510191
 10
-447.5
 20
-750.0
 10
-448.0709035923753
 20
-747.1298742489807
 10
-449.6966990916243
 20
-744.6966990916243
 10
-452.1298742489807
 20
-743.0709035923753
 10
-455.0
 20
-742.4999999999998
 10
-457.8701257510192
 20
-743.0709035923753
 10
-460.3033009083756
 20
-744.6966990916243
 10
-461.9290964076246
 20
-747.1298742489807
 97
        0
 75
     0
 76
     1
 98
        0
450
        0
451
        0
460
0.0
461
0.0
452
        1
462
0.0
453
        0
470

  0
CIRCLE
  5
11B
330
114
100
AcDbEntity
  8
_2D寸法.2D
  6
Continuous
 62
     5
440
 16777216
370
     5
100
AcDbCircle
 10
455.0
 20
-750.0
 30
0.0
 40
7.5
  0
HATCH
  5
11C
330
114
100
AcDbEntity
  8
_2D寸法.2D
  6
Continuous
 62
     5
440
 16777216
370
     5
100
AcDbHatch
 10
0.0
 20
0.0
 30
0.0
210
0.0
220
0.0
230
1.0
  2
SOLID
 70
     1
 71
     0
 91
        1
 92
        3
 72
     0
 73
     1
 93
       16
 10
447.5
 20
-750.0
 10
448.0709035923753
 20
-752.8701257510191
 10
449.6966990916243
 20
-755.3033009083756
 10
452.1298742489807
 20
-756.9290964076246
 10
455.0
 20
-757.5
 10
457.8701257510192
 20
-756.9290964076246
 10
460.3033009083756
 20
-755.3033009083756
 10
461.9290964076246
 20
-752.8701257510191
 10
462.5
 20
-750.0
 10
461.9290964076246
 20
-747.1298742489807
 10
460.3033009083756
 20
-744.6966990916243
 10
457.8701257510192
 20
-743.0709035923753
 10
455.0
 20
-742.4999999999998
 10
452.1298742489807
 20
-743.0709035923753
 10
449.6966990916243
 20
-744.6966990916243
 10
448.0709035923753
 20
-747.1298742489807
 97
        0
 75
     0
 76
     1
 98
        0
450
        0
451
        0
460
0.0
461
0.0
452
        1
462
0.0
453
        0
470

  0
POINT
  5
11D
330
114
100
AcDbEntity
  8
_2D寸法.2D
  6
Continuous
 62
     5
440
 16777216
370
     5
100
AcDbPoint
 10
-455.0
 20
-757.5
 30
0.0
  0
LINE
  5
11E
330
114
100
AcDbEntity
  8
_2D寸法.2D
  6
Continuous
 62
     5
440
 16777216
370
     5
100
AcDbLine
 10
-455.0
 20
-742.4999999999999
 30
0.0
 11
-455.0
 21
-600.0
 31
0.0
  0
POINT
  5
11F
330
114
100
AcDbEntity
  8
_2D寸法.2D
  6
Continuous
 62
     5
440
 16777216
370
     5
100
AcDbPoint
 10
455.0
 20
-757.5
 30
0.0
  0
LINE
  5
120
330
114
100
AcDbEntity
  8
_2D寸法.2D
  6
Continuous
 62
     5
440
 16777216
370
     5
100
AcDbLine
 10
455.0
 20
-742.4999999999999
 30
0.0
 11
455.0
 21
-600.0
 31
0.0
  0
MTEXT
  5
122
102
{ACAD_XDICTIONARY
360
406
102
}
330
114
100
AcDbEntity
  8
_2D寸法.2D
 62
     7
440
 16777216
370
     5
100
AcDbMText
 10
-90.00045000000001
 20
-731.9999992847442
 30
0.0
 40
90.0
 41
0.0
 46
0.0
 71
     7
 72
     1
  1
\A1;910
  7
GENERATED_STYLE_1
 73
     1
 44
1.0
  0
ENDBLK
  5
116
330
114
100
AcDbEntity
  8
0
100
AcDbBlockEnd
  0
BLOCK
  5
126
330
125
100
AcDbEntity
  8
0
100
AcDbBlockBegin
  2
ARROWHEAD_11
 70
     0
 10
0.0
 20
0.0
 30
0.0
  3
ARROWHEAD_11
  1

  0
LWPOLYLINE
  5
128
330
125
100
AcDbEntity
  8
0
  6
Continuous
 62
     0
370
     0
100
AcDbPolyline
 90
        2
 70
   129
 43
0.25
 10
-0.125
 20
0.0
 42
1.0
 10
0.125
 20
0.0
 42
1.0
  0
LINE
  5
129
330
125
100
AcDbEntity
  8
0
  6
Continuous
 62
     0
370
     0
100
AcDbLine
 10
0.0
 20
0.0
 30
0.0
 11
-1.0
 21
0.0
 31
0.0
  0
ENDBLK
  5
127
330
125
100
AcDbEntity
  8
0
100
AcDbBlockEnd
  0
BLOCK
  5
12B
330
12A
100
AcDbEntity
  8
0
100
AcDbBlockBegin
  2
*D2
 70
     1
 10
0.0
 20
0.0
 30
0.0
  3
*D2
  1

  0
LINE
  5
12D
330
12A
100
AcDbEntity
  8
_2D寸法.2D
  6
Continuous
 62
     5
440
 16777216
370
     5
100
AcDbLine
 10
750.0
 20
-492.4999999999999
 30
0.0
 11
750.0
 21
292.5000000000001
 31
0.0
  0
CIRCLE
  5
12E
330
12A
100
AcDbEntity
  8
_2D寸法.2D
  6
Continuous
 62
     5
440
 16777216
370
     5
100
AcDbCircle
 10
750.0
 20
-500.0
 30
0.0
 40
7.5
  0
HATCH
  5
12F
330
12A
100
AcDbEntity
  8
_2D寸法.2D
  6
Continuous
 62
     5
440
 16777216
370
     5
100
AcDbHatch
 10
0.0
 20
0.0
 30
0.0
210
0.0
220
0.0
230
1.0
  2
SOLID
 70
     1
 71
     0
 91
        1
 92
        3
 72
     0
 73
     1
 93
       16
 10
742.4999999999999
 20
-500.0
 10
743.0709035923754
 20
-502.8701257510191
 10
744.6966990916243
 20
-505.3033009083756
 10
747.1298742489808
 20
-506.9290964076246
 10
750.0
 20
-507.4999999999999
 10
752.8701257510192
 20
-506.9290964076246
 10
755.3033009083756
 20
-505.3033009083756
 10
756.9290964076246
 20
-502.8701257510191
 10
757.5000000000001
 20
-500.0
 10
756.9290964076246
 20
-497.1298742489807
 10
755.3033009083756
 20
-494.6966990916243
 10
752.8701257510192
 20
-493.0709035923753
 10
750.0
 20
-492.4999999999999
 10
747.1298742489808
 20
-493.0709035923753
 10
744.6966990916243
 20
-494.6966990916243
 10
743.0709035923754
 20
-497.1298742489807
 97
        0
 75
     0
 76
     1
 98
        0
450
        0
451
        0
460
0.0
461
0.0
452
        1
462
0.0
453
        0
470

  0
CIRCLE
  5
130
330
12A
100
AcDbEntity
  8
_2D寸法.2D
  6
Continuous
 62
     5
440
 16777216
370
     5
100
AcDbCircle
 10
750.0
 20
300.0
 30
0.0
 40
7.5
  0
HATCH
  5
131
330
12A
100
AcDbEntity
  8
_2D寸法.2D
  6
Continuous
 62
     5
440
 16777216
370
     5
100
AcDbHatch
 10
0.0
 20
0.0
 30
0.0
210
0.0
220
0.0
230
1.0
  2
SOLID
 70
     1
 71
     0
 91
        1
 92
        3
 72
     0
 73
     1
 93
       16
 10
742.4999999999999
 20
300.0
 10
743.0709035923754
 20
297.1298742489808
 10
744.6966990916243
 20
294.6966990916244
 10
747.1298742489808
 20
293.0709035923754
 10
750.0
 20
292.5000000000001
 10
752.8701257510192
 20
293.0709035923754
 10
755.3033009083756
 20
294.6966990916244
 10
756.9290964076246
 20
297.1298742489808
 10
757.5000000000001
 20
300.0
 10
756.9290964076246
 20
302.8701257510193
 10
755.3033009083756
 20
305.3033009083757
 10
752.8701257510192
 20
306.9290964076247
 10
750.0
 20
307.5000000000001
 10
747.1298742489808
 20
306.9290964076247
 10
744.6966990916243
 20
305.3033009083757
 10
743.0709035923754
 20
302.8701257510193
 97
        0
 75
     0
 76
     1
 98
        0
450
        0
451
        0
460
0.0
461
0.0
452
        1
462
0.0
453
        0
470

  0
POINT
  5
132
330
12A
100
AcDbEntity
  8
_2D寸法.2D
  6
Continuous
 62
     5
440
 16777216
370
     5
100
AcDbPoint
 10
757.5
 20
-500.0
 30
0.0
  0
LINE
  5
133
330
12A
100
AcDbEntity
  8
_2D寸法.2D
  6
Continuous
 62
     5
440
 16777216
370
     5
100
AcDbLine
 10
742.4999999999999
 20
-500.0
 30
0.0
 11
600.0
 21
-500.0
 31
0.0
  0
POINT
  5
134
330
12A
100
AcDbEntity
  8
_2D寸法.2D
  6
Continuous
 62
     5
440
 16777216
370
     5
100
AcDbPoint
 10
757.5
 20
300.0
 30
0.0
  0
LINE
  5
135
330
12A
100
AcDbEntity
  8
_2D寸法.2D
  6
Continuous
 62
     5
440
 16777216
370
     5
100
AcDbLine
 10
742.4999999999999
 20
300.0
 30
0.0
 11
600.0
 21
300.0
 31
0.0
  0
MTEXT
  5
136
102
{ACAD_XDICTIONARY
360
408
102
}
330
12A
100
AcDbEntity
  8
_2D寸法.2D
 62
     7
440
 16777216
370
     5
100
AcDbMText
 10
731.9999992847442
 20
-190.00045
 30
0.0
 40
90.0
 41
0.0
 46
0.0
 71
     7
 72
     1
  1
\A1;800
  7
GENERATED_STYLE_1
 11
0.0000000000000001
 21
1.0
 31
0.0
 73
     1
 44
1.0
  0
ENDBLK
  5
12C
330
12A
100
AcDbEntity
  8
0
100
AcDbBlockEnd
  0
BLOCK
  5
1AB
330
1AA
100
AcDbEntity
  8
0
100
AcDbBlockBegin
  2
*D3
 70
     1
 10
4503.37261833827
 20
-868.3251067772413
 30
0.0
  3
*D3
  1

  0
LINE
  5
1AD
330
1AA
100
AcDbEntity
  8
_2D寸法.2D
  6
Continuous
 62
     5
440
 16777216
370
     5
100
AcDbLine
 10
4055.87261833827
 20
-718.3251067772413
 30
0.0
 11
4950.87261833827
 21
-718.3251067772413
 31
0.0
  0
CIRCLE
  5
1AE
330
1AA
100
AcDbEntity
  8
_2D寸法.2D
  6
Continuous
 62
     5
440
 16777216
370
     5
100
AcDbCircle
 10
4048.37261833827
 20
-718.3251067772413
 30
0.0
 40
7.5
  0
HATCH
  5
1AF
330
1AA
100
AcDbEntity
  8
_2D寸法.2D
  6
Continuous
 62
     5
440
 16777216
370
     5
100
AcDbHatch
 10
0.0
 20
0.0
 30
0.0
210
0.0
220
0.0
230
1.0
  2
SOLID
 70
     1
 71
     0
 91
        1
 92
        3
 72
     0
 73
     1
 93
       16
 10
4040.87261833827
 20
-718.3251067772413
 10
4041.443521930646
 20
-721.1952325282606
 10
4043.069317429895
 20
-723.628407685617
 10
4045.502492587251
 20
-725.254203184866
 10
4048.37261833827
 20
-725.8251067772413
 10
4051.242744089289
 20
-725.254203184866
 10
4053.675919246646
 20
-723.628407685617
 10
4055.301714745895
 20
-721.1952325282606
 10
4055.87261833827
 20
-718.3251067772413
 10
4055.301714745895
 20
-715.4549810262221
 10
4053.675919246646
 20
-713.0218058688655
 10
4051.242744089289
 20
-711.3960103696166
 10
4048.37261833827
 20
-710.8251067772413
 10
4045.502492587251
 20
-711.3960103696166
 10
4043.069317429895
 20
-713.0218058688655
 10
4041.443521930646
 20
-715.4549810262221
 97
        0
 75
     0
 76
     1
 98
        0
450
        0
451
        0
460
0.0
461
0.0
452
        1
462
0.0
453
        0
470

  0
CIRCLE
  5
1B0
330
1AA
100
AcDbEntity
  8
_2D寸法.2D
  6
Continuous
 62
     5
440
 16777216
370
     5
100
AcDbCircle
 10
4958.372618338271
 20
-718.3251067772413
 30
0.0
 40
7.5
  0
HATCH
  5
1B1
330
1AA
100
AcDbEntity
  8
_2D寸法.2D
  6
Continuous
 62
     5
440
 16777216
370
     5
100
AcDbHatch
 10
0.0
 20
0.0
 30
0.0
210
0.0
220
0.0
230
1.0
  2
SOLID
 70
     1
 71
     0
 91
        1
 92
        3
 72
     0
 73
     1
 93
       16
 10
4950.87261833827
 20
-718.3251067772413
 10
4951.443521930646
 20
-721.1952325282606
 10
4953.069317429895
 20
-723.628407685617
 10
4955.502492587251
 20
-725.254203184866
 10
4958.372618338271
 20
-725.8251067772413
 10
4961.24274408929
 20
-725.254203184866
 10
4963.675919246647
 20
-723.628407685617
 10
4965.301714745895
 20
-721.1952325282606
 10
4965.87261833827
 20
-718.3251067772413
 10
4965.301714745895
 20
-715.4549810262221
 10
4963.675919246647
 20
-713.0218058688655
 10
4961.24274408929
 20
-711.3960103696166
 10
4958.372618338271
 20
-710.8251067772413
 10
4955.502492587251
 20
-711.3960103696166
 10
4953.069317429895
 20
-713.0218058688655
 10
4951.443521930646
 20
-715.4549810262221
 97
        0
 75
     0
 76
     1
 98
        0
450
        0
451
        0
460
0.0
461
0.0
452
        1
462
0.0
453
        0
470

  0
POINT
  5
1B2
330
1AA
100
AcDbEntity
  8
_2D寸法.2D
  6
Continuous
 62
     5
440
 16777216
370
     5
100
AcDbPoint
 10
4048.37261833827
 20
-725.8251067772413
 30
0.0
  0
LINE
  5
1B3
330
1AA
100
AcDbEntity
  8
_2D寸法.2D
  6
Continuous
 62
     5
440
 16777216
370
     5
100
AcDbLine
 10
4048.37261833827
 20
-710.8251067772413
 30
0.0
 11
4048.37261833827
 21
-568.3251067772413
 31
0.0
  0
POINT
  5
1B4
330
1AA
100
AcDbEntity
  8
_2D寸法.2D
  6
Continuous
 62
     5
440
 16777216
370
     5
100
AcDbPoint
 10
4958.372618338271
 20
-725.8251067772413
 30
0.0
  0
LINE
  5
1B5
330
1AA
100
AcDbEntity
  8
_2D寸法.2D
  6
Continuous
 62
     5
440
 16777216
370
     5
100
AcDbLine
 10
4958.372618338271
 20
-710.8251067772413
 30
0.0
 11
4958.372618338271
 21
-568.3251067772413
 31
0.0
  0
MTEXT
  5
1B6
102
{ACAD_XDICTIONARY
360
40A
102
}
330
1AA
100
AcDbEntity
  8
_2D寸法.2D
 62
     7
440
 16777216
370
     5
100
AcDbMText
 10
4428.372247212573
 20
-703.3251061811949
 30
0.0
 40
75.0
 41
0.0
 46
0.0
 71
     7
 72
     1
  1
\A1;910
  7
GENERATED_STYLE_1
 73
     1
 44
1.0
  0
ENDBLK
  5
1AC
330
1AA
100
AcDbEntity
  8
0
100
AcDbBlockEnd
  0
BLOCK
  5
1BA
330
1B9
100
AcDbEntity
  8
0
100
AcDbBlockBegin
  2
*D4
 70
     1
 10
4503.37261833827
 20
-868.3251067772413
 30
0.0
  3
*D4
  1

  0
LINE
  5
1BC
330
1B9
100
AcDbEntity
  8
_2D寸法.2D
  6
Continuous
 62
     5
440
 16777216
370
     5
100
AcDbLine
 10
3753.37261833827
 20
-360.8251186229651
 30
0.0
 11
3753.37261833827
 21
-225.8251186229649
 31
0.0
  0
CIRCLE
  5
1BD
330
1B9
100
AcDbEntity
  8
_2D寸法.2D
  6
Continuous
 62
     5
440
 16777216
370
     5
100
AcDbCircle
 10
3753.37261833827
 20
-368.3251186229651
 30
0.0
 40
7.5
  0
HATCH
  5
1BE
330
1B9
100
AcDbEntity
  8
_2D寸法.2D
  6
Continuous
 62
     5
440
 16777216
370
     5
100
AcDbHatch
 10
0.0
 20
0.0
 30
0.0
210
0.0
220
0.0
230
1.0
  2
SOLID
 70
     1
 71
     0
 91
        1
 92
        3
 72
     0
 73
     1
 93
       16
 10
3745.872618338271
 20
-368.3251186229651
 10
3746.443521930646
 20
-371.1952443739843
 10
3748.069317429895
 20
-373.6284195313408
 10
3750.502492587251
 20
-375.2542150305897
 10
3753.37261833827
 20
-375.8251186229651
 10
3756.24274408929
 20
-375.2542150305897
 10
3758.675919246646
 20
-373.6284195313408
 10
3760.301714745895
 20
-371.1952443739843
 10
3760.872618338271
 20
-368.3251186229651
 10
3760.301714745895
 20
-365.4549928719459
 10
3758.675919246646
 20
-363.0218177145895
 10
3756.24274408929
 20
-361.3960222153405
 10
3753.37261833827
 20
-360.8251186229651
 10
3750.502492587251
 20
-361.3960222153405
 10
3748.069317429895
 20
-363.0218177145895
 10
3746.443521930646
 20
-365.4549928719459
 97
        0
 75
     0
 76
     1
 98
        0
450
        0
451
        0
460
0.0
461
0.0
452
        1
462
0.0
453
        0
470

  0
LINE
  5
1BF
330
1B9
100
AcDbEntity
  8
_2D寸法.2D
  6
Continuous
 62
     5
440
 16777216
370
     5
100
AcDbLine
 10
3903.37261833827
 20
-368.3251186229651
 30
0.0
 11
3760.872618338271
 21
-368.3251186229651
 31
0.0
  0
POINT
  5
1C0
330
1B9
100
AcDbEntity
  8
_2D寸法.2D
  6
Continuous
 62
     5
440
 16777216
370
     5
100
AcDbPoint
 10
3745.872618338271
 20
-368.3251186229651
 30
0.0
  0
LINE
  5
1C1
330
1B9
100
AcDbEntity
  8
_2D寸法.2D
  6
Continuous
 62
     5
440
 16777216
370
     5
100
AcDbLine
 10
3903.37261833827
 20
-218.3251186229651
 30
0.0
 11
3760.872618338271
 21
-218.3251186229651
 31
0.0
  0
POINT
  5
1C2
330
1B9
100
AcDbEntity
  8
_2D寸法.2D
  6
Continuous
 62
     5
440
 16777216
370
     5
100
AcDbPoint
 10
3745.872618338271
 20
-218.3251186229651
 30
0.0
  0
CIRCLE
  5
1C3
330
1B9
100
AcDbEntity
  8
_2D寸法.2D
  6
Continuous
 62
     5
440
 16777216
370
     5
100
AcDbCircle
 10
3753.37261833827
 20
-218.3251067772413
 30
0.0
 40
7.5
  0
HATCH
  5
1C4
330
1B9
100
AcDbEntity
  8
_2D寸法.2D
  6
Continuous
 62
     5
440
 16777216
370
     5
100
AcDbHatch
 10
0.0
 20
0.0
 30
0.0
210
0.0
220
0.0
230
1.0
  2
SOLID
 70
     1
 71
     0
 91
        1
 92
        3
 72
     0
 73
     1
 93
       16
 10
3745.872618338271
 20
-218.3251067772413
 10
3746.443521930646
 20
-221.1952325282605
 10
3748.069317429895
 20
-223.6284076856169
 10
3750.502492587251
 20
-225.2542031848659
 10
3753.37261833827
 20
-225.8251067772412
 10
3756.24274408929
 20
-225.2542031848659
 10
3758.675919246646
 20
-223.6284076856169
 10
3760.301714745895
 20
-221.1952325282605
 10
3760.872618338271
 20
-218.3251067772413
 10
3760.301714745895
 20
-215.4549810262221
 10
3758.675919246646
 20
-213.0218058688657
 10
3756.24274408929
 20
-211.3960103696166
 10
3753.37261833827
 20
-210.8251067772414
 10
3750.502492587251
 20
-211.3960103696166
 10
3748.069317429895
 20
-213.0218058688657
 10
3746.443521930646
 20
-215.4549810262221
 97
        0
 75
     0
 76
     1
 98
        0
450
        0
451
        0
460
0.0
461
0.0
452
        1
462
0.0
453
        0
470

  0
MTEXT
  5
1C5
102
{ACAD_XDICTIONARY
360
40C
102
}
330
1B9
100
AcDbEntity
  8
_2D寸法.2D
 62
     7
440
 16777216
370
     5
100
AcDbMText
 10
3738.372617742224
 20
-368.3254838258013
 30
0.0
 40
75.0
 41
0.0
 46
0.0
 71
     7
 72
     1
  1
\A1;150
  7
GENERATED_STYLE_1
 11
0.0000000000000001
 21
1.0
 31
0.0
 73
     1
 44
1.0
  0
ENDBLK
  5
1BB
330
1B9
100
AcDbEntity
  8
0
100
AcDbBlockEnd
  0
BLOCK
  5
1C9
330
1C8
100
AcDbEntity
  8
0
100
AcDbBlockBegin
  2
*D5
 70
     1
 10
4503.37261833827
 20
-868.3251067772413
 30
0.0
  3
*D5
  1

  0
LINE
  5
1CB
330
1C8
100
AcDbEntity
  8
_2D寸法.2D
  6
Continuous
 62
     5
440
 16777216
370
     5
100
AcDbLine
 10
3753.37261833827
 20
-210.8251067772414
 30
0.0
 11
3753.37261833827
 21
1594.174893222759
 31
0.0
  0
CIRCLE
  5
1CC
330
1C8
100
AcDbEntity
  8
_2D寸法.2D
  6
Continuous
 62
     5
440
 16777216
370
     5
100
AcDbCircle
 10
3753.37261833827
 20
-218.3251067772413
 30
0.0
 40
7.5
  0
HATCH
  5
1CD
330
1C8
100
AcDbEntity
  8
_2D寸法.2D
  6
Continuous
 62
     5
440
 16777216
370
     5
100
AcDbHatch
 10
0.0
 20
0.0
 30
0.0
210
0.0
220
0.0
230
1.0
  2
SOLID
 70
     1
 71
     0
 91
        1
 92
        3
 72
     0
 73
     1
 93
       16
 10
3745.872618338271
 20
-218.3251067772413
 10
3746.443521930646
 20
-221.1952325282605
 10
3748.069317429895
 20
-223.6284076856169
 10
3750.502492587251
 20
-225.2542031848659
 10
3753.37261833827
 20
-225.8251067772412
 10
3756.24274408929
 20
-225.2542031848659
 10
3758.675919246646
 20
-223.6284076856169
 10
3760.301714745895
 20
-221.1952325282605
 10
3760.872618338271
 20
-218.3251067772413
 10
3760.301714745895
 20
-215.4549810262221
 10
3758.675919246646
 20
-213.0218058688657
 10
3756.24274408929
 20
-211.3960103696166
 10
3753.37261833827
 20
-210.8251067772414
 10
3750.502492587251
 20
-211.3960103696166
 10
3748.069317429895
 20
-213.0218058688657
 10
3746.443521930646
 20
-215.4549810262221
 97
        0
 75
     0
 76
     1
 98
        0
450
        0
451
        0
460
0.0
461
0.0
452
        1
462
0.0
453
        0
470

  0
LINE
  5
1CE
330
1C8
100
AcDbEntity
  8
_2D寸法.2D
  6
Continuous
 62
     5
440
 16777216
370
     5
100
AcDbLine
 10
3903.37261833827
 20
1601.674893222759
 30
0.0
 11
3760.872618338271
 21
1601.674893222759
 31
0.0
  0
POINT
  5
1CF
330
1C8
100
AcDbEntity
  8
_2D寸法.2D
  6
Continuous
 62
     5
440
 16777216
370
     5
100
AcDbPoint
 10
3745.872618338271
 20
1601.674893222759
 30
0.0
  0
CIRCLE
  5
1D0
330
1C8
100
AcDbEntity
  8
_2D寸法.2D
  6
Continuous
 62
     5
440
 16777216
370
     5
100
AcDbCircle
 10
3753.37261833827
 20
1601.674893222759
 30
0.0
 40
7.5
  0
HATCH
  5
1D1
330
1C8
100
AcDbEntity
  8
_2D寸法.2D
  6
Continuous
 62
     5
440
 16777216
370
     5
100
AcDbHatch
 10
0.0
 20
0.0
 30
0.0
210
0.0
220
0.0
230
1.0
  2
SOLID
 70
     1
 71
     0
 91
        1
 92
        3
 72
     0
 73
     1
 93
       16
 10
3745.872618338271
 20
1601.674893222759
 10
3746.443521930646
 20
1598.80476747174
 10
3748.069317429895
 20
1596.371592314383
 10
3750.502492587251
 20
1594.745796815134
 10
3753.37261833827
 20
1594.174893222759
 10
3756.24274408929
 20
1594.745796815134
 10
3758.675919246646
 20
1596.371592314383
 10
3760.301714745895
 20
1598.80476747174
 10
3760.872618338271
 20
1601.674893222759
 10
3760.301714745895
 20
1604.545018973778
 10
3758.675919246646
 20
1606.978194131134
 10
3756.24274408929
 20
1608.603989630384
 10
3753.37261833827
 20
1609.174893222759
 10
3750.502492587251
 20
1608.603989630384
 10
3748.069317429895
 20
1606.978194131134
 10
3746.443521930646
 20
1604.545018973778
 97
        0
 75
     0
 76
     1
 98
        0
450
        0
451
        0
460
0.0
461
0.0
452
        1
462
0.0
453
        0
470

  0
MTEXT
  5
1D2
102
{ACAD_XDICTIONARY
360
40E
102
}
330
1C8
100
AcDbEntity
  8
_2D寸法.2D
 62
     7
440
 16777216
370
     5
100
AcDbMText
 10
3738.372617742224
 20
566.6746426267126
 30
0.0
 40
75.0
 41
0.0
 46
0.0
 71
     7
 72
     1
  1
\A1;1,820
  7
GENERATED_STYLE_1
 11
0.0000000000000001
 21
1.0
 31
0.0
 73
     1
 44
1.0
  0
MTEXT
  5
1D3
102
{ACAD_XDICTIONARY
360
410
102
}
330
1C8
100
AcDbEntity
  8
_2D寸法.2D
 62
     7
440
 16777216
370
     5
100
AcDbMText
 10
3738.372617742224
 20
1556.674642030667
 30
0.0
 40
75.0
 41
0.0
 46
0.0
 71
     7
 72
     1
  1
\A1;10
  7
GENERATED_STYLE_1
 11
0.0000000000000001
 21
1.0
 31
0.0
 73
     1
 44
1.0
  0
ENDBLK
  5
1CA
330
1C8
100
AcDbEntity
  8
0
100
AcDbBlockEnd
  0
BLOCK
  5
1D6
330
1D5
100
AcDbEntity
  8
0
100
AcDbBlockBegin
  2
*D6
 70
     1
 10
4503.37261833827
 20
-868.3251067772413
 30
0.0
  3
*D6
  1

  0
LINE
  5
1D8
330
1D5
100
AcDbEntity
  8
_2D寸法.2D
  6
Continuous
 62
     5
440
 16777216
370
     5
100
AcDbLine
 10
3903.37261833827
 20
1601.674893222759
 30
0.0
 11
3760.872618338271
 21
1601.674893222759
 31
0.0
  0
POINT
  5
1D9
330
1D5
100
AcDbEntity
  8
_2D寸法.2D
  6
Continuous
 62
     5
440
 16777216
370
     5
100
AcDbPoint
 10
3745.872618338271
 20
1601.674893222759
 30
0.0
  0
LINE
  5
1DA
330
1D5
100
AcDbEntity
  8
_2D寸法.2D
  6
Continuous
 62
     5
440
 16777216
370
     5
100
AcDbLine
 10
3753.37261833827
 20
1601.674893222759
 30
0.0
 11
3753.37261833827
 21
1604.174893222759
 31
0.0
  0
CIRCLE
  5
1DB
330
1D5
100
AcDbEntity
  8
_2D寸法.2D
  6
Continuous
 62
     5
440
 16777216
370
     5
100
AcDbCircle
 10
3753.37261833827
 20
1601.674893222759
 30
0.0
 40
7.5
  0
HATCH
  5
1DC
330
1D5
100
AcDbEntity
  8
_2D寸法.2D
  6
Continuous
 62
     5
440
 16777216
370
     5
100
AcDbHatch
 10
0.0
 20
0.0
 30
0.0
210
0.0
220
0.0
230
1.0
  2
SOLID
 70
     1
 71
     0
 91
        1
 92
        3
 72
     0
 73
     1
 93
       16
 10
3745.872618338271
 20
1601.674893222759
 10
3746.443521930646
 20
1598.80476747174
 10
3748.069317429895
 20
1596.371592314383
 10
3750.502492587251
 20
1594.745796815134
 10
3753.37261833827
 20
1594.174893222759
 10
3756.24274408929
 20
1594.745796815134
 10
3758.675919246646
 20
1596.371592314383
 10
3760.301714745895
 20
1598.80476747174
 10
3760.872618338271
 20
1601.674893222759
 10
3760.301714745895
 20
1604.545018973778
 10
3758.675919246646
 20
1606.978194131134
 10
3756.24274408929
 20
1608.603989630384
 10
3753.37261833827
 20
1609.174893222759
 10
3750.502492587251
 20
1608.603989630384
 10
3748.069317429895
 20
1606.978194131134
 10
3746.443521930646
 20
1604.545018973778
 97
        0
 75
     0
 76
     1
 98
        0
450
        0
451
        0
460
0.0
461
0.0
452
        1
462
0.0
453
        0
470

  0
LINE
  5
1DD
330
1D5
100
AcDbEntity
  8
_2D寸法.2D
  6
Continuous
 62
     5
440
 16777216
370
     5
100
AcDbLine
 10
3903.37261833827
 20
1611.674893222758
 30
0.0
 11
3760.872618338271
 21
1611.674893222758
 31
0.0
  0
POINT
  5
1DE
330
1D5
100
AcDbEntity
  8
_2D寸法.2D
  6
Continuous
 62
     5
440
 16777216
370
     5
100
AcDbPoint
 10
3745.872618338271
 20
1611.674893222758
 30
0.0
  0
CIRCLE
  5
1DF
330
1D5
100
AcDbEntity
  8
_2D寸法.2D
  6
Continuous
 62
     5
440
 16777216
370
     5
100
AcDbCircle
 10
3753.37261833827
 20
1611.674893222758
 30
0.0
 40
7.5
  0
HATCH
  5
1E0
330
1D5
100
AcDbEntity
  8
_2D寸法.2D
  6
Continuous
 62
     5
440
 16777216
370
     5
100
AcDbHatch
 10
0.0
 20
0.0
 30
0.0
210
0.0
220
0.0
230
1.0
  2
SOLID
 70
     1
 71
     0
 91
        1
 92
        3
 72
     0
 73
     1
 93
       16
 10
3745.872618338271
 20
1611.674893222758
 10
3746.443521930646
 20
1608.804767471739
 10
3748.069317429895
 20
1606.371592314383
 10
3750.502492587251
 20
1604.745796815134
 10
3753.37261833827
 20
1604.174893222759
 10
3756.24274408929
 20
1604.745796815134
 10
3758.675919246646
 20
1606.371592314383
 10
3760.301714745895
 20
1608.804767471739
 10
3760.872618338271
 20
1611.674893222758
 10
3760.301714745895
 20
1614.545018973778
 10
3758.675919246646
 20
1616.978194131134
 10
3756.24274408929
 20
1618.603989630383
 10
3753.37261833827
 20
1619.174893222759
 10
3750.502492587251
 20
1618.603989630383
 10
3748.069317429895
 20
1616.978194131134
 10
3746.443521930646
 20
1614.545018973778
 97
        0
 75
     0
 76
     1
 98
        0
450
        0
451
        0
460
0.0
461
0.0
452
        1
462
0.0
453
        0
470

  0
ENDBLK
  5
1D7
330
1D5
100
AcDbEntity
  8
0
100
AcDbBlockEnd
  0
BLOCK
  5
1E3
330
1E2
100
AcDbEntity
  8
0
100
AcDbBlockBegin
  2
*D7
 70
     1
 10
4503.37261833827
 20
-868.3251067772413
 30
0.0
  3
*D7
  1

  0
LINE
  5
1E5
330
1E2
100
AcDbEntity
  8
_2D寸法.2D
  6
Continuous
 62
     5
440
 16777216
370
     5
100
AcDbLine
 10
3903.37261833827
 20
1611.674893222758
 30
0.0
 11
3760.872618338271
 21
1611.674893222758
 31
0.0
  0
POINT
  5
1E6
330
1E2
100
AcDbEntity
  8
_2D寸法.2D
  6
Continuous
 62
     5
440
 16777216
370
     5
100
AcDbPoint
 10
3745.872618338271
 20
1611.674893222758
 30
0.0
  0
LINE
  5
1E7
330
1E2
100
AcDbEntity
  8
_2D寸法.2D
  6
Continuous
 62
     5
440
 16777216
370
     5
100
AcDbLine
 10
3753.37261833827
 20
1619.174893222759
 30
0.0
 11
3753.37261833827
 21
2384.17489322276
 31
0.0
  0
CIRCLE
  5
1E8
330
1E2
100
AcDbEntity
  8
_2D寸法.2D
  6
Continuous
 62
     5
440
 16777216
370
     5
100
AcDbCircle
 10
3753.37261833827
 20
1611.674893222758
 30
0.0
 40
7.5
  0
HATCH
  5
1E9
330
1E2
100
AcDbEntity
  8
_2D寸法.2D
  6
Continuous
 62
     5
440
 16777216
370
     5
100
AcDbHatch
 10
0.0
 20
0.0
 30
0.0
210
0.0
220
0.0
230
1.0
  2
SOLID
 70
     1
 71
     0
 91
        1
 92
        3
 72
     0
 73
     1
 93
       16
 10
3745.872618338271
 20
1611.674893222758
 10
3746.443521930646
 20
1608.804767471739
 10
3748.069317429895
 20
1606.371592314383
 10
3750.502492587251
 20
1604.745796815134
 10
3753.37261833827
 20
1604.174893222759
 10
3756.24274408929
 20
1604.745796815134
 10
3758.675919246646
 20
1606.371592314383
 10
3760.301714745895
 20
1608.804767471739
 10
3760.872618338271
 20
1611.674893222758
 10
3760.301714745895
 20
1614.545018973778
 10
3758.675919246646
 20
1616.978194131134
 10
3756.24274408929
 20
1618.603989630383
 10
3753.37261833827
 20
1619.174893222759
 10
3750.502492587251
 20
1618.603989630383
 10
3748.069317429895
 20
1616.978194131134
 10
3746.443521930646
 20
1614.545018973778
 97
        0
 75
     0
 76
     1
 98
        0
450
        0
451
        0
460
0.0
461
0.0
452
        1
462
0.0
453
        0
470

  0
CIRCLE
  5
1EA
330
1E2
100
AcDbEntity
  8
_2D寸法.2D
  6
Continuous
 62
     5
440
 16777216
370
     5
100
AcDbCircle
 10
3753.37261833827
 20
2391.674893222759
 30
0.0
 40
7.5
  0
HATCH
  5
1EB
330
1E2
100
AcDbEntity
  8
_2D寸法.2D
  6
Continuous
 62
     5
440
 16777216
370
     5
100
AcDbHatch
 10
0.0
 20
0.0
 30
0.0
210
0.0
220
0.0
230
1.0
  2
SOLID
 70
     1
 71
     0
 91
        1
 92
        3
 72
     0
 73
     1
 93
       16
 10
3745.872618338271
 20
2391.674893222759
 10
3746.443521930646
 20
2388.804767471741
 10
3748.069317429895
 20
2386.371592314384
 10
3750.502492587251
 20
2384.745796815135
 10
3753.37261833827
 20
2384.17489322276
 10
3756.24274408929
 20
2384.745796815135
 10
3758.675919246646
 20
2386.371592314384
 10
3760.301714745895
 20
2388.804767471741
 10
3760.872618338271
 20
2391.674893222759
 10
3760.301714745895
 20
2394.545018973779
 10
3758.675919246646
 20
2396.978194131135
 10
3756.24274408929
 20
2398.603989630384
 10
3753.37261833827
 20
2399.17489322276
 10
3750.502492587251
 20
2398.603989630384
 10
3748.069317429895
 20
2396.978194131135
 10
3746.443521930646
 20
2394.545018973779
 97
        0
 75
     0
 76
     1
 98
        0
450
        0
451
        0
460
0.0
461
0.0
452
        1
462
0.0
453
        0
470

  0
LINE
  5
1EC
330
1E2
100
AcDbEntity
  8
_2D寸法.2D
  6
Continuous
 62
     5
440
 16777216
370
     5
100
AcDbLine
 10
3903.37261833827
 20
2391.674893222759
 30
0.0
 11
3760.872618338271
 21
2391.674893222759
 31
0.0
  0
POINT
  5
1ED
330
1E2
100
AcDbEntity
  8
_2D寸法.2D
  6
Continuous
 62
     5
440
 16777216
370
     5
100
AcDbPoint
 10
3745.872618338271
 20
2391.674893222759
 30
0.0
  0
MTEXT
  5
1EE
102
{ACAD_XDICTIONARY
360
412
102
}
330
1E2
100
AcDbEntity
  8
_2D寸法.2D
 62
     7
440
 16777216
370
     5
100
AcDbMText
 10
3738.372617742224
 20
1926.674522097062
 30
0.0
 40
75.0
 41
0.0
 46
0.0
 71
     7
 72
     1
  1
\A1;780
  7
GENERATED_STYLE_1
 11
0.0000000000000001
 21
1.0
 31
0.0
 73
     1
 44
1.0
  0
ENDBLK
  5
1E4
330
1E2
100
AcDbEntity
  8
0
100
AcDbBlockEnd
  0
BLOCK
  5
1F1
330
1F0
100
AcDbEntity
  8
0
100
AcDbBlockBegin
  2
*D8
 70
     1
 10
4503.37261833827
 20
-868.3251067772413
 30
0.0
  3
*D8
  1

  0
LINE
  5
1F3
330
1F0
100
AcDbEntity
  8
_2D寸法.2D
  6
Continuous
 62
     5
440
 16777216
370
     5
100
AcDbLine
 10
4088.37261833827
 20
2581.674893222758
 30
0.0
 11
4918.37261833827
 21
2581.674893222758
 31
0.0
  0
CIRCLE
  5
1F4
330
1F0
100
AcDbEntity
  8
_2D寸法.2D
  6
Continuous
 62
     5
440
 16777216
370
     5
100
AcDbCircle
 10
4080.87261833827
 20
2581.674893222758
 30
0.0
 40
7.5
  0
HATCH
  5
1F5
330
1F0
100
AcDbEntity
  8
_2D寸法.2D
  6
Continuous
 62
     5
440
 16777216
370
     5
100
AcDbHatch
 10
0.0
 20
0.0
 30
0.0
210
0.0
220
0.0
230
1.0
  2
SOLID
 70
     1
 71
     0
 91
        1
 92
        3
 72
     0
 73
     1
 93
       16
 10
4073.372618338271
 20
2581.674893222758
 10
4073.943521930647
 20
2578.80476747174
 10
4075.569317429894
 20
2576.371592314383
 10
4078.002492587251
 20
2574.745796815134
 10
4080.87261833827
 20
2574.174893222759
 10
4083.742744089289
 20
2574.745796815134
 10
4086.175919246646
 20
2576.371592314383
 10
4087.801714745895
 20
2578.80476747174
 10
4088.37261833827
 20
2581.674893222758
 10
4087.801714745895
 20
2584.545018973778
 10
4086.175919246646
 20
2586.978194131134
 10
4083.742744089289
 20
2588.603989630384
 10
4080.87261833827
 20
2589.174893222759
 10
4078.002492587251
 20
2588.603989630384
 10
4075.569317429894
 20
2586.978194131134
 10
4073.943521930647
 20
2584.545018973778
 97
        0
 75
     0
 76
     1
 98
        0
450
        0
451
        0
460
0.0
461
0.0
452
        1
462
0.0
453
        0
470

  0
CIRCLE
  5
1F6
330
1F0
100
AcDbEntity
  8
_2D寸法.2D
  6
Continuous
 62
     5
440
 16777216
370
     5
100
AcDbCircle
 10
4925.872618338271
 20
2581.674893222758
 30
0.0
 40
7.5
  0
HATCH
  5
1F7
330
1F0
100
AcDbEntity
  8
_2D寸法.2D
  6
Continuous
 62
     5
440
 16777216
370
     5
100
AcDbHatch
 10
0.0
 20
0.0
 30
0.0
210
0.0
220
0.0
230
1.0
  2
SOLID
 70
     1
 71
     0
 91
        1
 92
        3
 72
     0
 73
     1
 93
       16
 10
4918.37261833827
 20
2581.674893222758
 10
4918.943521930646
 20
2578.80476747174
 10
4920.569317429895
 20
2576.371592314383
 10
4923.002492587251
 20
2574.745796815134
 10
4925.872618338271
 20
2574.174893222759
 10
4928.74274408929
 20
2574.745796815134
 10
4931.175919246646
 20
2576.371592314383
 10
4932.801714745895
 20
2578.80476747174
 10
4933.372618338271
 20
2581.674893222758
 10
4932.801714745895
 20
2584.545018973778
 10
4931.175919246646
 20
2586.978194131134
 10
4928.74274408929
 20
2588.603989630384
 10
4925.872618338271
 20
2589.174893222759
 10
4923.002492587251
 20
2588.603989630384
 10
4920.569317429895
 20
2586.978194131134
 10
4918.943521930646
 20
2584.545018973778
 97
        0
 75
     0
 76
     1
 98
        0
450
        0
451
        0
460
0.0
461
0.0
452
        1
462
0.0
453
        0
470

  0
LINE
  5
1F8
330
1F0
100
AcDbEntity
  8
_2D寸法.2D
  6
Continuous
 62
     5
440
 16777216
370
     5
100
AcDbLine
 10
4080.87261833827
 20
2431.674893222759
 30
0.0
 11
4080.87261833827
 21
2574.174893222759
 31
0.0
  0
POINT
  5
1F9
330
1F0
100
AcDbEntity
  8
_2D寸法.2D
  6
Continuous
 62
     5
440
 16777216
370
     5
100
AcDbPoint
 10
4080.87261833827
 20
2589.174893222759
 30
0.0
  0
LINE
  5
1FA
330
1F0
100
AcDbEntity
  8
_2D寸法.2D
  6
Continuous
 62
     5
440
 16777216
370
     5
100
AcDbLine
 10
4925.872618338271
 20
2431.674893222759
 30
0.0
 11
4925.872618338271
 21
2574.174893222759
 31
0.0
  0
POINT
  5
1FB
330
1F0
100
AcDbEntity
  8
_2D寸法.2D
  6
Continuous
 62
     5
440
 16777216
370
     5
100
AcDbPoint
 10
4925.872618338271
 20
2589.174893222759
 30
0.0
  0
MTEXT
  5
1FC
102
{ACAD_XDICTIONARY
360
414
102
}
330
1F0
100
AcDbEntity
  8
_2D寸法.2D
 62
     7
440
 16777216
370
     5
100
AcDbMText
 10
4428.372247212573
 20
2596.674893818805
 30
0.0
 40
75.0
 41
0.0
 46
0.0
 71
     7
 72
     1
  1
\A1;845
  7
GENERATED_STYLE_1
 73
     1
 44
1.0
  0
ENDBLK
  5
1F2
330
1F0
100
AcDbEntity
  8
0
100
AcDbBlockEnd
  0
BLOCK
  5
1FF
330
1FE
100
AcDbEntity
  8
0
100
AcDbBlockBegin
  2
*D9
 70
     1
 10
4503.37261833827
 20
-868.3251067772413
 30
0.0
  3
*D9
  1

  0
LINE
  5
201
330
1FE
100
AcDbEntity
  8
_2D寸法.2D
  6
Continuous
 62
     5
440
 16777216
370
     5
100
AcDbLine
 10
4055.87261833827
 20
-568.3251067772413
 30
0.0
 11
4105.87261833827
 21
-568.3251067772413
 31
0.0
  0
CIRCLE
  5
202
330
1FE
100
AcDbEntity
  8
_2D寸法.2D
  6
Continuous
 62
     5
440
 16777216
370
     5
100
AcDbCircle
 10
4048.37261833827
 20
-568.3251067772413
 30
0.0
 40
7.5
  0
HATCH
  5
203
330
1FE
100
AcDbEntity
  8
_2D寸法.2D
  6
Continuous
 62
     5
440
 16777216
370
     5
100
AcDbHatch
 10
0.0
 20
0.0
 30
0.0
210
0.0
220
0.0
230
1.0
  2
SOLID
 70
     1
 71
     0
 91
        1
 92
        3
 72
     0
 73
     1
 93
       16
 10
4040.87261833827
 20
-568.3251067772413
 10
4041.443521930646
 20
-571.1952325282606
 10
4043.069317429895
 20
-573.628407685617
 10
4045.502492587251
 20
-575.2542031848658
 10
4048.37261833827
 20
-575.8251067772413
 10
4051.242744089289
 20
-575.2542031848658
 10
4053.675919246646
 20
-573.628407685617
 10
4055.301714745895
 20
-571.1952325282606
 10
4055.87261833827
 20
-568.3251067772413
 10
4055.301714745895
 20
-565.4549810262221
 10
4053.675919246646
 20
-563.0218058688655
 10
4051.242744089289
 20
-561.3960103696167
 10
4048.37261833827
 20
-560.8251067772413
 10
4045.502492587251
 20
-561.3960103696167
 10
4043.069317429895
 20
-563.0218058688655
 10
4041.443521930646
 20
-565.4549810262221
 97
        0
 75
     0
 76
     1
 98
        0
450
        0
451
        0
460
0.0
461
0.0
452
        1
462
0.0
453
        0
470

  0
CIRCLE
  5
204
330
1FE
100
AcDbEntity
  8
_2D寸法.2D
  6
Continuous
 62
     5
440
 16777216
370
     5
100
AcDbCircle
 10
4113.37261833827
 20
-568.3251067772413
 30
0.0
 40
7.5
  0
HATCH
  5
205
330
1FE
100
AcDbEntity
  8
_2D寸法.2D
  6
Continuous
 62
     5
440
 16777216
370
     5
100
AcDbHatch
 10
0.0
 20
0.0
 30
0.0
210
0.0
220
0.0
230
1.0
  2
SOLID
 70
     1
 71
     0
 91
        1
 92
        3
 72
     0
 73
     1
 93
       16
 10
4105.87261833827
 20
-568.3251067772413
 10
4106.443521930645
 20
-571.1952325282606
 10
4108.069317429895
 20
-573.628407685617
 10
4110.502492587251
 20
-575.2542031848658
 10
4113.37261833827
 20
-575.8251067772413
 10
4116.24274408929
 20
-575.2542031848658
 10
4118.675919246646
 20
-573.628407685617
 10
4120.301714745894
 20
-571.1952325282606
 10
4120.87261833827
 20
-568.3251067772413
 10
4120.301714745894
 20
-565.4549810262221
 10
4118.675919246646
 20
-563.0218058688655
 10
4116.24274408929
 20
-561.3960103696167
 10
4113.37261833827
 20
-560.8251067772413
 10
4110.502492587251
 20
-561.3960103696167
 10
4108.069317429895
 20
-563.0218058688655
 10
4106.443521930645
 20
-565.4549810262221
 97
        0
 75
     0
 76
     1
 98
        0
450
        0
451
        0
460
0.0
461
0.0
452
        1
462
0.0
453
        0
470

  0
POINT
  5
206
330
1FE
100
AcDbEntity
  8
_2D寸法.2D
  6
Continuous
 62
     5
440
 16777216
370
     5
100
AcDbPoint
 10
4048.37261833827
 20
-575.8251067772413
 30
0.0
  0
LINE
  5
207
330
1FE
100
AcDbEntity
  8
_2D寸法.2D
  6
Continuous
 62
     5
440
 16777216
370
     5
100
AcDbLine
 10
4048.37261833827
 20
-560.8251067772413
 30
0.0
 11
4048.37261833827
 21
-418.3251067772413
 31
0.0
  0
POINT
  5
208
330
1FE
100
AcDbEntity
  8
_2D寸法.2D
  6
Continuous
 62
     5
440
 16777216
370
     5
100
AcDbPoint
 10
4113.37261833827
 20
-575.8251067772413
 30
0.0
  0
LINE
  5
209
330
1FE
100
AcDbEntity
  8
_2D寸法.2D
  6
Continuous
 62
     5
440
 16777216
370
     5
100
AcDbLine
 10
4113.37261833827
 20
-560.8251067772413
 30
0.0
 11
4113.37261833827
 21
-418.3251067772413
 31
0.0
  0
MTEXT
  5
20A
102
{ACAD_XDICTIONARY
360
416
102
}
330
1FE
100
AcDbEntity
  8
_2D寸法.2D
 62
     7
440
 16777216
370
     5
100
AcDbMText
 10
3940.872117998763
 20
-553.3251061811949
 30
0.0
 40
75.0
 41
0.0
 46
0.0
 71
     7
 72
     1
  1
\A1;65
  7
GENERATED_STYLE_1
 73
     1
 44
1.0
  0
ENDBLK
  5
200
330
1FE
100
AcDbEntity
  8
0
100
AcDbBlockEnd
  0
BLOCK
  5
20D
330
20C
100
AcDbEntity
  8
0
100
AcDbBlockBegin
  2
*D10
 70
     1
 10
4503.37261833827
 20
-868.3251067772413
 30
0.0
  3
*D10
  1

  0
LINE
  5
20F
330
20C
100
AcDbEntity
  8
_2D寸法.2D
  6
Continuous
 62
     5
440
 16777216
370
     5
100
AcDbLine
 10
4900.87261833827
 20
-568.3251067772413
 30
0.0
 11
4950.87261833827
 21
-568.3251067772413
 31
0.0
  0
CIRCLE
  5
210
330
20C
100
AcDbEntity
  8
_2D寸法.2D
  6
Continuous
 62
     5
440
 16777216
370
     5
100
AcDbCircle
 10
4893.37261833827
 20
-568.3251067772413
 30
0.0
 40
7.5
  0
HATCH
  5
211
330
20C
100
AcDbEntity
  8
_2D寸法.2D
  6
Continuous
 62
     5
440
 16777216
370
     5
100
AcDbHatch
 10
0.0
 20
0.0
 30
0.0
210
0.0
220
0.0
230
1.0
  2
SOLID
 70
     1
 71
     0
 91
        1
 92
        3
 72
     0
 73
     1
 93
       16
 10
4885.872618338271
 20
-568.3251067772413
 10
4886.443521930647
 20
-571.1952325282606
 10
4888.069317429895
 20
-573.628407685617
 10
4890.502492587251
 20
-575.2542031848658
 10
4893.37261833827
 20
-575.8251067772413
 10
4896.242744089289
 20
-575.2542031848658
 10
4898.675919246646
 20
-573.628407685617
 10
4900.301714745895
 20
-571.1952325282606
 10
4900.87261833827
 20
-568.3251067772413
 10
4900.301714745895
 20
-565.4549810262221
 10
4898.675919246646
 20
-563.0218058688655
 10
4896.242744089289
 20
-561.3960103696167
 10
4893.37261833827
 20
-560.8251067772413
 10
4890.502492587251
 20
-561.3960103696167
 10
4888.069317429895
 20
-563.0218058688655
 10
4886.443521930647
 20
-565.4549810262221
 97
        0
 75
     0
 76
     1
 98
        0
450
        0
451
        0
460
0.0
461
0.0
452
        1
462
0.0
453
        0
470

  0
CIRCLE
  5
212
330
20C
100
AcDbEntity
  8
_2D寸法.2D
  6
Continuous
 62
     5
440
 16777216
370
     5
100
AcDbCircle
 10
4958.372618338271
 20
-568.3251067772413
 30
0.0
 40
7.5
  0
HATCH
  5
213
330
20C
100
AcDbEntity
  8
_2D寸法.2D
  6
Continuous
 62
     5
440
 16777216
370
     5
100
AcDbHatch
 10
0.0
 20
0.0
 30
0.0
210
0.0
220
0.0
230
1.0
  2
SOLID
 70
     1
 71
     0
 91
        1
 92
        3
 72
     0
 73
     1
 93
       16
 10
4950.87261833827
 20
-568.3251067772413
 10
4951.443521930646
 20
-571.1952325282606
 10
4953.069317429895
 20
-573.628407685617
 10
4955.502492587251
 20
-575.2542031848658
 10
4958.372618338271
 20
-575.8251067772413
 10
4961.24274408929
 20
-575.2542031848658
 10
4963.675919246647
 20
-573.628407685617
 10
4965.301714745895
 20
-571.1952325282606
 10
4965.87261833827
 20
-568.3251067772413
 10
4965.301714745895
 20
-565.4549810262221
 10
4963.675919246647
 20
-563.0218058688655
 10
4961.24274408929
 20
-561.3960103696167
 10
4958.372618338271
 20
-560.8251067772413
 10
4955.502492587251
 20
-561.3960103696167
 10
4953.069317429895
 20
-563.0218058688655
 10
4951.443521930646
 20
-565.4549810262221
 97
        0
 75
     0
 76
     1
 98
        0
450
        0
451
        0
460
0.0
461
0.0
452
        1
462
0.0
453
        0
470

  0
POINT
  5
214
330
20C
100
AcDbEntity
  8
_2D寸法.2D
  6
Continuous
 62
     5
440
 16777216
370
     5
100
AcDbPoint
 10
4893.37261833827
 20
-575.8251067772413
 30
0.0
  0
LINE
  5
215
330
20C
100
AcDbEntity
  8
_2D寸法.2D
  6
Continuous
 62
     5
440
 16777216
370
     5
100
AcDbLine
 10
4893.37261833827
 20
-560.8251067772413
 30
0.0
 11
4893.37261833827
 21
-418.3251067772413
 31
0.0
  0
POINT
  5
216
330
20C
100
AcDbEntity
  8
_2D寸法.2D
  6
Continuous
 62
     5
440
 16777216
370
     5
100
AcDbPoint
 10
4958.372618338271
 20
-575.8251067772413
 30
0.0
  0
LINE
  5
217
330
20C
100
AcDbEntity
  8
_2D寸法.2D
  6
Continuous
 62
     5
440
 16777216
370
     5
100
AcDbLine
 10
4958.372618338271
 20
-560.8251067772413
 30
0.0
 11
4958.372618338271
 21
-418.3251067772413
 31
0.0
  0
MTEXT
  5
218
102
{ACAD_XDICTIONARY
360
418
102
}
330
20C
100
AcDbEntity
  8
_2D寸法.2D
 62
     7
440
 16777216
370
     5
100
AcDbMText
 10
4785.872117998763
 20
-553.3251061811949
 30
0.0
 40
75.0
 41
0.0
 46
0.0
 71
     7
 72
     1
  1
\A1;65
  7
GENERATED_STYLE_1
 73
     1
 44
1.0
  0
ENDBLK
  5
20E
330
20C
100
AcDbEntity
  8
0
100
AcDbBlockEnd
  0
BLOCK
  5
21B
330
21A
100
AcDbEntity
  8
0
100
AcDbBlockBegin
  2
*D11
 70
     1
 10
4503.37261833827
 20
-868.3251067772413
 30
0.0
  3
*D11
  1

  0
LINE
  5
21D
330
21A
100
AcDbEntity
  8
_2D寸法.2D
  6
Continuous
 62
     5
440
 16777216
370
     5
100
AcDbLine
 10
5253.37261833827
 20
1596.674893222758
 30
0.0
 11
5253.37261833827
 21
1606.674893222759
 31
0.0
  0
CIRCLE
  5
21E
330
21A
100
AcDbEntity
  8
_2D寸法.2D
  6
Continuous
 62
     5
440
 16777216
370
     5
100
AcDbCircle
 10
5253.37261833827
 20
1589.174893222758
 30
0.0
 40
7.5
  0
HATCH
  5
21F
330
21A
100
AcDbEntity
  8
_2D寸法.2D
  6
Continuous
 62
     5
440
 16777216
370
     5
100
AcDbHatch
 10
0.0
 20
0.0
 30
0.0
210
0.0
220
0.0
230
1.0
  2
SOLID
 70
     1
 71
     0
 91
        1
 92
        3
 72
     0
 73
     1
 93
       16
 10
5245.872618338271
 20
1589.174893222758
 10
5246.443521930646
 20
1586.304767471739
 10
5248.069317429894
 20
1583.871592314382
 10
5250.502492587251
 20
1582.245796815134
 10
5253.37261833827
 20
1581.674893222758
 10
5256.24274408929
 20
1582.245796815134
 10
5258.675919246646
 20
1583.871592314382
 10
5260.301714745895
 20
1586.304767471739
 10
5260.872618338271
 20
1589.174893222758
 10
5260.301714745895
 20
1592.045018973778
 10
5258.675919246646
 20
1594.478194131134
 10
5256.24274408929
 20
1596.103989630383
 10
5253.37261833827
 20
1596.674893222759
 10
5250.502492587251
 20
1596.103989630383
 10
5248.069317429894
 20
1594.478194131134
 10
5246.443521930646
 20
1592.045018973778
 97
        0
 75
     0
 76
     1
 98
        0
450
        0
451
        0
460
0.0
461
0.0
452
        1
462
0.0
453
        0
470

  0
CIRCLE
  5
220
330
21A
100
AcDbEntity
  8
_2D寸法.2D
  6
Continuous
 62
     5
440
 16777216
370
     5
100
AcDbCircle
 10
5253.37261833827
 20
1614.174893222759
 30
0.0
 40
7.5
  0
HATCH
  5
221
330
21A
100
AcDbEntity
  8
_2D寸法.2D
  6
Continuous
 62
     5
440
 16777216
370
     5
100
AcDbHatch
 10
0.0
 20
0.0
 30
0.0
210
0.0
220
0.0
230
1.0
  2
SOLID
 70
     1
 71
     0
 91
        1
 92
        3
 72
     0
 73
     1
 93
       16
 10
5245.872618338271
 20
1614.174893222759
 10
5246.443521930646
 20
1611.30476747174
 10
5248.069317429894
 20
1608.871592314383
 10
5250.502492587251
 20
1607.245796815134
 10
5253.37261833827
 20
1606.674893222759
 10
5256.24274408929
 20
1607.245796815134
 10
5258.675919246646
 20
1608.871592314383
 10
5260.301714745895
 20
1611.30476747174
 10
5260.872618338271
 20
1614.174893222759
 10
5260.301714745895
 20
1617.045018973778
 10
5258.675919246646
 20
1619.478194131134
 10
5256.24274408929
 20
1621.103989630383
 10
5253.37261833827
 20
1621.674893222759
 10
5250.502492587251
 20
1621.103989630383
 10
5248.069317429894
 20
1619.478194131134
 10
5246.443521930646
 20
1617.045018973778
 97
        0
 75
     0
 76
     1
 98
        0
450
        0
451
        0
460
0.0
461
0.0
452
        1
462
0.0
453
        0
470

  0
POINT
  5
222
330
21A
100
AcDbEntity
  8
_2D寸法.2D
  6
Continuous
 62
     5
440
 16777216
370
     5
100
AcDbPoint
 10
5260.872618338271
 20
1589.174893222758
 30
0.0
  0
LINE
  5
223
330
21A
100
AcDbEntity
  8
_2D寸法.2D
  6
Continuous
 62
     5
440
 16777216
370
     5
100
AcDbLine
 10
5245.872618338271
 20
1589.174893222758
 30
0.0
 11
5103.37261833827
 21
1589.174893222758
 31
0.0
  0
POINT
  5
224
330
21A
100
AcDbEntity
  8
_2D寸法.2D
  6
Continuous
 62
     5
440
 16777216
370
     5
100
AcDbPoint
 10
5260.872618338271
 20
1614.174893222759
 30
0.0
  0
LINE
  5
225
330
21A
100
AcDbEntity
  8
_2D寸法.2D
  6
Continuous
 62
     5
440
 16777216
370
     5
100
AcDbLine
 10
5245.872618338271
 20
1614.174893222759
 30
0.0
 11
5103.37261833827
 21
1614.174893222759
 31
0.0
  0
MTEXT
  5
226
102
{ACAD_XDICTIONARY
360
41A
102
}
330
21A
100
AcDbEntity
  8
_2D寸法.2D
 62
     7
440
 16777216
370
     5
100
AcDbMText
 10
5238.372617742224
 20
1481.67439288325
 30
0.0
 40
75.0
 41
0.0
 46
0.0
 71
     7
 72
     1
  1
\A1;25
  7
GENERATED_STYLE_1
 11
0.0000000000000001
 21
1.0
 31
0.0
 73
     1
 44
1.0
  0
ENDBLK
  5
21C
330
21A
100
AcDbEntity
  8
0
100
AcDbBlockEnd
  0
BLOCK
  5
229
330
228
100
AcDbEntity
  8
0
100
AcDbBlockBegin
  2
*D12
 70
     1
 10
4503.37261833827
 20
-868.3251067772413
 30
0.0
  3
*D12
  1

  0
LINE
  5
22B
330
228
100
AcDbEntity
  8
_2D寸法.2D
  6
Continuous
 62
     5
440
 16777216
370
     5
100
AcDbLine
 10
5403.37261833827
 20
-360.8251067772415
 30
0.0
 11
5403.37261833827
 21
1594.174893222759
 31
0.0
  0
CIRCLE
  5
22C
330
228
100
AcDbEntity
  8
_2D寸法.2D
  6
Continuous
 62
     5
440
 16777216
370
     5
100
AcDbCircle
 10
5403.37261833827
 20
-368.3251067772415
 30
0.0
 40
7.5
  0
HATCH
  5
22D
330
228
100
AcDbEntity
  8
_2D寸法.2D
  6
Continuous
 62
     5
440
 16777216
370
     5
100
AcDbHatch
 10
0.0
 20
0.0
 30
0.0
210
0.0
220
0.0
230
1.0
  2
SOLID
 70
     1
 71
     0
 91
        1
 92
        3
 72
     0
 73
     1
 93
       16
 10
5395.872618338271
 20
-368.3251067772415
 10
5396.443521930645
 20
-371.1952325282607
 10
5398.069317429895
 20
-373.6284076856171
 10
5400.502492587251
 20
-375.2542031848661
 10
5403.37261833827
 20
-375.8251067772414
 10
5406.24274408929
 20
-375.2542031848661
 10
5408.675919246646
 20
-373.6284076856171
 10
5410.301714745894
 20
-371.1952325282607
 10
5410.87261833827
 20
-368.3251067772415
 10
5410.301714745894
 20
-365.4549810262222
 10
5408.675919246646
 20
-363.0218058688658
 10
5406.24274408929
 20
-361.3960103696168
 10
5403.37261833827
 20
-360.8251067772415
 10
5400.502492587251
 20
-361.3960103696168
 10
5398.069317429895
 20
-363.0218058688658
 10
5396.443521930645
 20
-365.4549810262222
 97
        0
 75
     0
 76
     1
 98
        0
450
        0
451
        0
460
0.0
461
0.0
452
        1
462
0.0
453
        0
470

  0
CIRCLE
  5
22E
330
228
100
AcDbEntity
  8
_2D寸法.2D
  6
Continuous
 62
     5
440
 16777216
370
     5
100
AcDbCircle
 10
5403.37261833827
 20
1601.674893222758
 30
0.0
 40
7.5
  0
HATCH
  5
22F
330
228
100
AcDbEntity
  8
_2D寸法.2D
  6
Continuous
 62
     5
440
 16777216
370
     5
100
AcDbHatch
 10
0.0
 20
0.0
 30
0.0
210
0.0
220
0.0
230
1.0
  2
SOLID
 70
     1
 71
     0
 91
        1
 92
        3
 72
     0
 73
     1
 93
       16
 10
5395.872618338271
 20
1601.674893222758
 10
5396.443521930645
 20
1598.804767471739
 10
5398.069317429895
 20
1596.371592314383
 10
5400.502492587251
 20
1594.745796815134
 10
5403.37261833827
 20
1594.174893222759
 10
5406.24274408929
 20
1594.745796815134
 10
5408.675919246646
 20
1596.371592314383
 10
5410.301714745894
 20
1598.804767471739
 10
5410.87261833827
 20
1601.674893222758
 10
5410.301714745894
 20
1604.545018973778
 10
5408.675919246646
 20
1606.978194131134
 10
5406.24274408929
 20
1608.603989630383
 10
5403.37261833827
 20
1609.174893222759
 10
5400.502492587251
 20
1608.603989630383
 10
5398.069317429895
 20
1606.978194131134
 10
5396.443521930645
 20
1604.545018973778
 97
        0
 75
     0
 76
     1
 98
        0
450
        0
451
        0
460
0.0
461
0.0
452
        1
462
0.0
453
        0
470

  0
POINT
  5
230
330
228
100
AcDbEntity
  8
_2D寸法.2D
  6
Continuous
 62
     5
440
 16777216
370
     5
100
AcDbPoint
 10
5410.87261833827
 20
-368.3251067772415
 30
0.0
  0
LINE
  5
231
330
228
100
AcDbEntity
  8
_2D寸法.2D
  6
Continuous
 62
     5
440
 16777216
370
     5
100
AcDbLine
 10
5395.872618338271
 20
-368.3251067772415
 30
0.0
 11
5253.37261833827
 21
-368.3251067772415
 31
0.0
  0
POINT
  5
232
330
228
100
AcDbEntity
  8
_2D寸法.2D
  6
Continuous
 62
     5
440
 16777216
370
     5
100
AcDbPoint
 10
5410.87261833827
 20
1601.674893222758
 30
0.0
  0
LINE
  5
233
330
228
100
AcDbEntity
  8
_2D寸法.2D
  6
Continuous
 62
     5
440
 16777216
370
     5
100
AcDbLine
 10
5395.872618338271
 20
1601.674893222758
 30
0.0
 11
5253.37261833827
 21
1601.674893222758
 31
0.0
  0
MTEXT
  5
234
102
{ACAD_XDICTIONARY
360
41C
102
}
330
228
100
AcDbEntity
  8
_2D寸法.2D
 62
     7
440
 16777216
370
     5
100
AcDbMText
 10
5388.372617742223
 20
491.6746426267121
 30
0.0
 40
75.0
 41
0.0
 46
0.0
 71
     7
 72
     1
  1
\A1;1,970
  7
GENERATED_STYLE_1
 11
0.0000000000000001
 21
1.0
 31
0.0
 73
     1
 44
1.0
  0
ENDBLK
  5
22A
330
228
100
AcDbEntity
  8
0
100
AcDbBlockEnd
  0
BLOCK
  5
237
330
236
100
AcDbEntity
  8
0
100
AcDbBlockBegin
  2
*D13
 70
     1
 10
4503.37261833827
 20
-868.3251067772413
 30
0.0
  3
*D13
  1

  0
LINE
  5
239
330
236
100
AcDbEntity
  8
_2D寸法.2D
  6
Continuous
 62
     5
440
 16777216
370
     5
100
AcDbLine
 10
5553.37261833827
 20
-360.8251067772414
 30
0.0
 11
5553.37261833827
 21
2384.174893222759
 31
0.0
  0
CIRCLE
  5
23A
330
236
100
AcDbEntity
  8
_2D寸法.2D
  6
Continuous
 62
     5
440
 16777216
370
     5
100
AcDbCircle
 10
5553.37261833827
 20
-368.3251067772413
 30
0.0
 40
7.5
  0
HATCH
  5
23B
330
236
100
AcDbEntity
  8
_2D寸法.2D
  6
Continuous
 62
     5
440
 16777216
370
     5
100
AcDbHatch
 10
0.0
 20
0.0
 30
0.0
210
0.0
220
0.0
230
1.0
  2
SOLID
 70
     1
 71
     0
 91
        1
 92
        3
 72
     0
 73
     1
 93
       16
 10
5545.872618338271
 20
-368.3251067772413
 10
5546.443521930646
 20
-371.1952325282605
 10
5548.069317429895
 20
-373.628407685617
 10
5550.502492587251
 20
-375.254203184866
 10
5553.37261833827
 20
-375.8251067772413
 10
5556.242744089289
 20
-375.254203184866
 10
5558.675919246645
 20
-373.628407685617
 10
5560.301714745895
 20
-371.1952325282605
 10
5560.872618338271
 20
-368.3251067772413
 10
5560.301714745895
 20
-365.454981026222
 10
5558.675919246645
 20
-363.0218058688656
 10
5556.242744089289
 20
-361.3960103696166
 10
5553.37261833827
 20
-360.8251067772413
 10
5550.502492587251
 20
-361.3960103696166
 10
5548.069317429895
 20
-363.0218058688656
 10
5546.443521930646
 20
-365.454981026222
 97
        0
 75
     0
 76
     1
 98
        0
450
        0
451
        0
460
0.0
461
0.0
452
        1
462
0.0
453
        0
470

  0
CIRCLE
  5
23C
330
236
100
AcDbEntity
  8
_2D寸法.2D
  6
Continuous
 62
     5
440
 16777216
370
     5
100
AcDbCircle
 10
5553.37261833827
 20
2391.674893222759
 30
0.0
 40
7.5
  0
HATCH
  5
23D
330
236
100
AcDbEntity
  8
_2D寸法.2D
  6
Continuous
 62
     5
440
 16777216
370
     5
100
AcDbHatch
 10
0.0
 20
0.0
 30
0.0
210
0.0
220
0.0
230
1.0
  2
SOLID
 70
     1
 71
     0
 91
        1
 92
        3
 72
     0
 73
     1
 93
       16
 10
5545.872618338271
 20
2391.674893222759
 10
5546.443521930646
 20
2388.804767471739
 10
5548.069317429895
 20
2386.371592314383
 10
5550.502492587251
 20
2384.745796815134
 10
5553.37261833827
 20
2384.174893222759
 10
5556.242744089289
 20
2384.745796815134
 10
5558.675919246645
 20
2386.371592314383
 10
5560.301714745895
 20
2388.804767471739
 10
5560.872618338271
 20
2391.674893222759
 10
5560.301714745895
 20
2394.545018973778
 10
5558.675919246645
 20
2396.978194131135
 10
5556.242744089289
 20
2398.603989630384
 10
5553.37261833827
 20
2399.174893222759
 10
5550.502492587251
 20
2398.603989630384
 10
5548.069317429895
 20
2396.978194131135
 10
5546.443521930646
 20
2394.545018973778
 97
        0
 75
     0
 76
     1
 98
        0
450
        0
451
        0
460
0.0
461
0.0
452
        1
462
0.0
453
        0
470

  0
POINT
  5
23E
330
236
100
AcDbEntity
  8
_2D寸法.2D
  6
Continuous
 62
     5
440
 16777216
370
     5
100
AcDbPoint
 10
5560.872618338271
 20
-368.3251067772413
 30
0.0
  0
LINE
  5
23F
330
236
100
AcDbEntity
  8
_2D寸法.2D
  6
Continuous
 62
     5
440
 16777216
370
     5
100
AcDbLine
 10
5545.872618338271
 20
-368.3251067772413
 30
0.0
 11
5403.37261833827
 21
-368.3251067772413
 31
0.0
  0
POINT
  5
240
330
236
100
AcDbEntity
  8
_2D寸法.2D
  6
Continuous
 62
     5
440
 16777216
370
     5
100
AcDbPoint
 10
5560.872618338271
 20
2391.674893222759
 30
0.0
  0
LINE
  5
241
330
236
100
AcDbEntity
  8
_2D寸法.2D
  6
Continuous
 62
     5
440
 16777216
370
     5
100
AcDbLine
 10
5545.872618338271
 20
2391.674893222759
 30
0.0
 11
5403.37261833827
 21
2391.674893222759
 31
0.0
  0
MTEXT
  5
242
102
{ACAD_XDICTIONARY
360
41E
102
}
330
236
100
AcDbEntity
  8
_2D寸法.2D
 62
     7
440
 16777216
370
     5
100
AcDbMText
 10
5538.372617742224
 20
886.6746426267122
 30
0.0
 40
75.0
 41
0.0
 46
0.0
 71
     7
 72
     1
  1
\A1;2,760
  7
GENERATED_STYLE_1
 11
0.0000000000000001
 21
1.0
 31
0.0
 73
     1
 44
1.0
  0
ENDBLK
  5
238
330
236
100
AcDbEntity
  8
0
100
AcDbBlockEnd
  0
BLOCK
  5
245
330
244
100
AcDbEntity
  8
0
100
AcDbBlockBegin
  2
*D14
 70
     1
 10
4503.37261833827
 20
-868.3251067772413
 30
0.0
  3
*D14
  1

  0
LINE
  5
247
330
244
100
AcDbEntity
  8
_2D寸法.2D
  6
Continuous
 62
     5
440
 16777216
370
     5
100
AcDbLine
 10
5253.37261833827
 20
-360.8251067772415
 30
0.0
 11
5253.37261833827
 21
-309.8251067772413
 31
0.0
  0
CIRCLE
  5
248
330
244
100
AcDbEntity
  8
_2D寸法.2D
  6
Continuous
 62
     5
440
 16777216
370
     5
100
AcDbCircle
 10
5253.37261833827
 20
-368.3251067772415
 30
0.0
 40
7.5
  0
HATCH
  5
249
330
244
100
AcDbEntity
  8
_2D寸法.2D
  6
Continuous
 62
     5
440
 16777216
370
     5
100
AcDbHatch
 10
0.0
 20
0.0
 30
0.0
210
0.0
220
0.0
230
1.0
  2
SOLID
 70
     1
 71
     0
 91
        1
 92
        3
 72
     0
 73
     1
 93
       16
 10
5245.872618338271
 20
-368.3251067772415
 10
5246.443521930646
 20
-371.1952325282607
 10
5248.069317429894
 20
-373.6284076856171
 10
5250.502492587251
 20
-375.2542031848661
 10
5253.37261833827
 20
-375.8251067772414
 10
5256.24274408929
 20
-375.2542031848661
 10
5258.675919246646
 20
-373.6284076856171
 10
5260.301714745895
 20
-371.1952325282607
 10
5260.872618338271
 20
-368.3251067772415
 10
5260.301714745895
 20
-365.4549810262222
 10
5258.675919246646
 20
-363.0218058688658
 10
5256.24274408929
 20
-361.3960103696168
 10
5253.37261833827
 20
-360.8251067772415
 10
5250.502492587251
 20
-361.3960103696168
 10
5248.069317429894
 20
-363.0218058688658
 10
5246.443521930646
 20
-365.4549810262222
 97
        0
 75
     0
 76
     1
 98
        0
450
        0
451
        0
460
0.0
461
0.0
452
        1
462
0.0
453
        0
470

  0
POINT
  5
24A
330
244
100
AcDbEntity
  8
_2D寸法.2D
  6
Continuous
 62
     5
440
 16777216
370
     5
100
AcDbPoint
 10
5260.872618338271
 20
-368.3251067772415
 30
0.0
  0
LINE
  5
24B
330
244
100
AcDbEntity
  8
_2D寸法.2D
  6
Continuous
 62
     5
440
 16777216
370
     5
100
AcDbLine
 10
5245.872618338271
 20
-368.3251067772415
 30
0.0
 11
5103.37261833827
 21
-368.3251067772415
 31
0.0
  0
POINT
  5
24C
330
244
100
AcDbEntity
  8
_2D寸法.2D
  6
Continuous
 62
     5
440
 16777216
370
     5
100
AcDbPoint
 10
5260.872618338271
 20
-302.3251067772414
 30
0.0
  0
LINE
  5
24D
330
244
100
AcDbEntity
  8
_2D寸法.2D
  6
Continuous
 62
     5
440
 16777216
370
     5
100
AcDbLine
 10
5245.872618338271
 20
-302.3251067772414
 30
0.0
 11
5103.37261833827
 21
-302.3251067772414
 31
0.0
  0
CIRCLE
  5
24E
330
244
100
AcDbEntity
  8
_2D寸法.2D
  6
Continuous
 62
     5
440
 16777216
370
     5
100
AcDbCircle
 10
5253.37261833827
 20
-302.3251067772414
 30
0.0
 40
7.5
  0
HATCH
  5
24F
330
244
100
AcDbEntity
  8
_2D寸法.2D
  6
Continuous
 62
     5
440
 16777216
370
     5
100
AcDbHatch
 10
0.0
 20
0.0
 30
0.0
210
0.0
220
0.0
230
1.0
  2
SOLID
 70
     1
 71
     0
 91
        1
 92
        3
 72
     0
 73
     1
 93
       16
 10
5245.872618338271
 20
-302.3251067772414
 10
5246.443521930646
 20
-305.1952325282606
 10
5248.069317429894
 20
-307.6284076856169
 10
5250.502492587251
 20
-309.254203184866
 10
5253.37261833827
 20
-309.8251067772413
 10
5256.24274408929
 20
-309.254203184866
 10
5258.675919246646
 20
-307.6284076856169
 10
5260.301714745895
 20
-305.1952325282606
 10
5260.872618338271
 20
-302.3251067772414
 10
5260.301714745895
 20
-299.4549810262222
 10
5258.675919246646
 20
-297.0218058688658
 10
5256.24274408929
 20
-295.3960103696168
 10
5253.37261833827
 20
-294.8251067772414
 10
5250.502492587251
 20
-295.3960103696168
 10
5248.069317429894
 20
-297.0218058688658
 10
5246.443521930646
 20
-299.4549810262222
 97
        0
 75
     0
 76
     1
 98
        0
450
        0
451
        0
460
0.0
461
0.0
452
        1
462
0.0
453
        0
470

  0
MTEXT
  5
250
102
{ACAD_XDICTIONARY
360
420
102
}
330
244
100
AcDbEntity
  8
_2D寸法.2D
 62
     7
440
 16777216
370
     5
100
AcDbMText
 10
5238.372617742224
 20
-475.8256071167495
 30
0.0
 40
75.0
 41
0.0
 46
0.0
 71
     7
 72
     1
  1
\A1;66
  7
GENERATED_STYLE_1
 11
0.0000000000000001
 21
1.0
 31
0.0
 73
     1
 44
1.0
  0
MTEXT
  5
251
102
{ACAD_XDICTIONARY
360
422
102
}
330
244
100
AcDbEntity
  8
_2D寸法.2D
 62
     7
440
 16777216
370
     5
100
AcDbMText
 10
5152.122614314957
 20
-332.3253579693343
 30
0.0
 40
75.0
 41
0.0
 46
0.0
 71
     7
 72
     1
  1
\A1;40
  7
GENERATED_STYLE_1
 11
0.0000000000000001
 21
1.0
 31
0.0
 73
     1
 44
1.0
  0
ENDBLK
  5
246
330
244
100
AcDbEntity
  8
0
100
AcDbBlockEnd
  0
BLOCK
  5
254
330
253
100
AcDbEntity
  8
0
100
AcDbBlockBegin
  2
*D15
 70
     1
 10
4503.37261833827
 20
-868.3251067772413
 30
0.0
  3
*D15
  1

  0
POINT
  5
256
330
253
100
AcDbEntity
  8
_2D寸法.2D
  6
Continuous
 62
     5
440
 16777216
370
     5
100
AcDbPoint
 10
5260.872618338271
 20
-302.3251067772414
 30
0.0
  0
LINE
  5
257
330
253
100
AcDbEntity
  8
_2D寸法.2D
  6
Continuous
 62
     5
440
 16777216
370
     5
100
AcDbLine
 10
5245.872618338271
 20
-302.3251067772414
 30
0.0
 11
5103.37261833827
 21
-302.3251067772414
 31
0.0
  0
LINE
  5
258
330
253
100
AcDbEntity
  8
_2D寸法.2D
  6
Continuous
 62
     5
440
 16777216
370
     5
100
AcDbLine
 10
5253.37261833827
 20
-294.8251067772414
 30
0.0
 11
5253.37261833827
 21
-269.8251067772413
 31
0.0
  0
CIRCLE
  5
259
330
253
100
AcDbEntity
  8
_2D寸法.2D
  6
Continuous
 62
     5
440
 16777216
370
     5
100
AcDbCircle
 10
5253.37261833827
 20
-302.3251067772414
 30
0.0
 40
7.5
  0
HATCH
  5
25A
330
253
100
AcDbEntity
  8
_2D寸法.2D
  6
Continuous
 62
     5
440
 16777216
370
     5
100
AcDbHatch
 10
0.0
 20
0.0
 30
0.0
210
0.0
220
0.0
230
1.0
  2
SOLID
 70
     1
 71
     0
 91
        1
 92
        3
 72
     0
 73
     1
 93
       16
 10
5245.872618338271
 20
-302.3251067772414
 10
5246.443521930646
 20
-305.1952325282606
 10
5248.069317429894
 20
-307.6284076856169
 10
5250.502492587251
 20
-309.254203184866
 10
5253.37261833827
 20
-309.8251067772413
 10
5256.24274408929
 20
-309.254203184866
 10
5258.675919246646
 20
-307.6284076856169
 10
5260.301714745895
 20
-305.1952325282606
 10
5260.872618338271
 20
-302.3251067772414
 10
5260.301714745895
 20
-299.4549810262222
 10
5258.675919246646
 20
-297.0218058688658
 10
5256.24274408929
 20
-295.3960103696168
 10
5253.37261833827
 20
-294.8251067772414
 10
5250.502492587251
 20
-295.3960103696168
 10
5248.069317429894
 20
-297.0218058688658
 10
5246.443521930646
 20
-299.4549810262222
 97
        0
 75
     0
 76
     1
 98
        0
450
        0
451
        0
460
0.0
461
0.0
452
        1
462
0.0
453
        0
470

  0
POINT
  5
25B
330
253
100
AcDbEntity
  8
_2D寸法.2D
  6
Continuous
 62
     5
440
 16777216
370
     5
100
AcDbPoint
 10
5260.872618338271
 20
-262.3251067772413
 30
0.0
  0
LINE
  5
25C
330
253
100
AcDbEntity
  8
_2D寸法.2D
  6
Continuous
 62
     5
440
 16777216
370
     5
100
AcDbLine
 10
5245.872618338271
 20
-262.3251067772413
 30
0.0
 11
5103.37261833827
 21
-262.3251067772413
 31
0.0
  0
CIRCLE
  5
25D
330
253
100
AcDbEntity
  8
_2D寸法.2D
  6
Continuous
 62
     5
440
 16777216
370
     5
100
AcDbCircle
 10
5253.37261833827
 20
-262.3251067772413
 30
0.0
 40
7.5
  0
HATCH
  5
25E
330
253
100
AcDbEntity
  8
_2D寸法.2D
  6
Continuous
 62
     5
440
 16777216
370
     5
100
AcDbHatch
 10
0.0
 20
0.0
 30
0.0
210
0.0
220
0.0
230
1.0
  2
SOLID
 70
     1
 71
     0
 91
        1
 92
        3
 72
     0
 73
     1
 93
       16
 10
5245.872618338271
 20
-262.3251067772413
 10
5246.443521930646
 20
-265.1952325282606
 10
5248.069317429894
 20
-267.6284076856169
 10
5250.502492587251
 20
-269.254203184866
 10
5253.37261833827
 20
-269.8251067772413
 10
5256.24274408929
 20
-269.254203184866
 10
5258.675919246646
 20
-267.6284076856169
 10
5260.301714745895
 20
-265.1952325282606
 10
5260.872618338271
 20
-262.3251067772413
 10
5260.301714745895
 20
-259.4549810262222
 10
5258.675919246646
 20
-257.0218058688657
 10
5256.24274408929
 20
-255.3960103696168
 10
5253.37261833827
 20
-254.8251067772414
 10
5250.502492587251
 20
-255.3960103696168
 10
5248.069317429894
 20
-257.0218058688657
 10
5246.443521930646
 20
-259.4549810262222
 97
        0
 75
     0
 76
     1
 98
        0
450
        0
451
        0
460
0.0
461
0.0
452
        1
462
0.0
453
        0
470

  0
ENDBLK
  5
255
330
253
100
AcDbEntity
  8
0
100
AcDbBlockEnd
  0
BLOCK
  5
261
330
260
100
AcDbEntity
  8
0
100
AcDbBlockBegin
  2
*D16
 70
     1
 10
4503.37261833827
 20
-868.3251067772413
 30
0.0
  3
*D16
  1

  0
POINT
  5
263
330
260
100
AcDbEntity
  8
_2D寸法.2D
  6
Continuous
 62
     5
440
 16777216
370
     5
100
AcDbPoint
 10
5260.872618338271
 20
-262.3251067772413
 30
0.0
  0
LINE
  5
264
330
260
100
AcDbEntity
  8
_2D寸法.2D
  6
Continuous
 62
     5
440
 16777216
370
     5
100
AcDbLine
 10
5245.872618338271
 20
-262.3251067772413
 30
0.0
 11
5103.37261833827
 21
-262.3251067772413
 31
0.0
  0
LINE
  5
265
330
260
100
AcDbEntity
  8
_2D寸法.2D
  6
Continuous
 62
     5
440
 16777216
370
     5
100
AcDbLine
 10
5253.37261833827
 20
-254.8251067772414
 30
0.0
 11
5253.37261833827
 21
-225.8251067772412
 31
0.0
  0
CIRCLE
  5
266
330
260
100
AcDbEntity
  8
_2D寸法.2D
  6
Continuous
 62
     5
440
 16777216
370
     5
100
AcDbCircle
 10
5253.37261833827
 20
-262.3251067772413
 30
0.0
 40
7.5
  0
HATCH
  5
267
330
260
100
AcDbEntity
  8
_2D寸法.2D
  6
Continuous
 62
     5
440
 16777216
370
     5
100
AcDbHatch
 10
0.0
 20
0.0
 30
0.0
210
0.0
220
0.0
230
1.0
  2
SOLID
 70
     1
 71
     0
 91
        1
 92
        3
 72
     0
 73
     1
 93
       16
 10
5245.872618338271
 20
-262.3251067772413
 10
5246.443521930646
 20
-265.1952325282606
 10
5248.069317429894
 20
-267.6284076856169
 10
5250.502492587251
 20
-269.254203184866
 10
5253.37261833827
 20
-269.8251067772413
 10
5256.24274408929
 20
-269.254203184866
 10
5258.675919246646
 20
-267.6284076856169
 10
5260.301714745895
 20
-265.1952325282606
 10
5260.872618338271
 20
-262.3251067772413
 10
5260.301714745895
 20
-259.4549810262222
 10
5258.675919246646
 20
-257.0218058688657
 10
5256.24274408929
 20
-255.3960103696168
 10
5253.37261833827
 20
-254.8251067772414
 10
5250.502492587251
 20
-255.3960103696168
 10
5248.069317429894
 20
-257.0218058688657
 10
5246.443521930646
 20
-259.4549810262222
 97
        0
 75
     0
 76
     1
 98
        0
450
        0
451
        0
460
0.0
461
0.0
452
        1
462
0.0
453
        0
470

  0
CIRCLE
  5
268
330
260
100
AcDbEntity
  8
_2D寸法.2D
  6
Continuous
 62
     5
440
 16777216
370
     5
100
AcDbCircle
 10
5253.37261833827
 20
-218.3251067772413
 30
0.0
 40
7.5
  0
HATCH
  5
269
330
260
100
AcDbEntity
  8
_2D寸法.2D
  6
Continuous
 62
     5
440
 16777216
370
     5
100
AcDbHatch
 10
0.0
 20
0.0
 30
0.0
210
0.0
220
0.0
230
1.0
  2
SOLID
 70
     1
 71
     0
 91
        1
 92
        3
 72
     0
 73
     1
 93
       16
 10
5245.872618338271
 20
-218.3251067772413
 10
5246.443521930646
 20
-221.1952325282605
 10
5248.069317429894
 20
-223.6284076856169
 10
5250.502492587251
 20
-225.2542031848659
 10
5253.37261833827
 20
-225.8251067772412
 10
5256.24274408929
 20
-225.2542031848659
 10
5258.675919246646
 20
-223.6284076856169
 10
5260.301714745895
 20
-221.1952325282605
 10
5260.872618338271
 20
-218.3251067772413
 10
5260.301714745895
 20
-215.4549810262221
 10
5258.675919246646
 20
-213.0218058688657
 10
5256.24274408929
 20
-211.3960103696166
 10
5253.37261833827
 20
-210.8251067772414
 10
5250.502492587251
 20
-211.3960103696166
 10
5248.069317429894
 20
-213.0218058688657
 10
5246.443521930646
 20
-215.4549810262221
 97
        0
 75
     0
 76
     1
 98
        0
450
        0
451
        0
460
0.0
461
0.0
452
        1
462
0.0
453
        0
470

  0
POINT
  5
26A
330
260
100
AcDbEntity
  8
_2D寸法.2D
  6
Continuous
 62
     5
440
 16777216
370
     5
100
AcDbPoint
 10
5260.872618338271
 20
-218.3251067772413
 30
0.0
  0
LINE
  5
26B
330
260
100
AcDbEntity
  8
_2D寸法.2D
  6
Continuous
 62
     5
440
 16777216
370
     5
100
AcDbLine
 10
5245.872618338271
 20
-218.3251067772413
 30
0.0
 11
5103.37261833827
 21
-218.3251067772413
 31
0.0
  0
MTEXT
  5
26C
102
{ACAD_XDICTIONARY
360
424
102
}
330
260
100
AcDbEntity
  8
_2D寸法.2D
 62
     7
440
 16777216
370
     5
100
AcDbMText
 10
5238.372617742224
 20
-210.8251088219191
 30
0.0
 40
75.0
 41
0.0
 46
0.0
 71
     7
 72
     1
  1
\A1;44
  7
GENERATED_STYLE_1
 11
0.0000000000000001
 21
1.0
 31
0.0
 73
     1
 44
1.0
  0
ENDBLK
  5
262
330
260
100
AcDbEntity
  8
0
100
AcDbBlockEnd
  0
BLOCK
  5
2E1
330
2E0
100
AcDbEntity
  8
0
100
AcDbBlockBegin
  2
*D17
 70
     1
 10
10267.41976034419
 20
-868.3251067772417
 30
0.0
  3
*D17
  1

  0
LINE
  5
2E3
330
2E0
100
AcDbEntity
  8
_2D寸法.2D
  6
Continuous
 62
     5
440
 16777216
370
     5
100
AcDbLine
 10
9774.919760344197
 20
-718.3251067772417
 30
0.0
 11
10559.91976034419
 21
-718.3251067772417
 31
0.0
  0
CIRCLE
  5
2E4
330
2E0
100
AcDbEntity
  8
_2D寸法.2D
  6
Continuous
 62
     5
440
 16777216
370
     5
100
AcDbCircle
 10
9767.419760344196
 20
-718.3251067772417
 30
0.0
 40
7.5
  0
HATCH
  5
2E5
330
2E0
100
AcDbEntity
  8
_2D寸法.2D
  6
Continuous
 62
     5
440
 16777216
370
     5
100
AcDbHatch
 10
0.0
 20
0.0
 30
0.0
210
0.0
220
0.0
230
1.0
  2
SOLID
 70
     1
 71
     0
 91
        1
 92
        3
 72
     0
 73
     1
 93
       16
 10
9759.919760344196
 20
-718.3251067772417
 10
9760.490663936572
 20
-721.1952325282609
 10
9762.116459435821
 20
-723.6284076856172
 10
9764.549634593178
 20
-725.2542031848663
 10
9767.419760344196
 20
-725.8251067772416
 10
9770.289886095216
 20
-725.2542031848663
 10
9772.723061252571
 20
-723.6284076856172
 10
9774.348856751821
 20
-721.1952325282609
 10
9774.919760344197
 20
-718.3251067772417
 10
9774.348856751821
 20
-715.4549810262224
 10
9772.723061252571
 20
-713.0218058688661
 10
9770.289886095216
 20
-711.396010369617
 10
9767.419760344196
 20
-710.8251067772417
 10
9764.549634593178
 20
-711.396010369617
 10
9762.116459435821
 20
-713.0218058688661
 10
9760.490663936572
 20
-715.4549810262224
 97
        0
 75
     0
 76
     1
 98
        0
450
        0
451
        0
460
0.0
461
0.0
452
        1
462
0.0
453
        0
470

  0
CIRCLE
  5
2E6
330
2E0
100
AcDbEntity
  8
_2D寸法.2D
  6
Continuous
 62
     5
440
 16777216
370
     5
100
AcDbCircle
 10
10567.41976034419
 20
-718.3251067772417
 30
0.0
 40
7.5
  0
HATCH
  5
2E7
330
2E0
100
AcDbEntity
  8
_2D寸法.2D
  6
Continuous
 62
     5
440
 16777216
370
     5
100
AcDbHatch
 10
0.0
 20
0.0
 30
0.0
210
0.0
220
0.0
230
1.0
  2
SOLID
 70
     1
 71
     0
 91
        1
 92
        3
 72
     0
 73
     1
 93
       16
 10
10559.91976034419
 20
-718.3251067772417
 10
10560.49066393657
 20
-721.1952325282609
 10
10562.11645943582
 20
-723.6284076856172
 10
10564.54963459317
 20
-725.2542031848663
 10
10567.41976034419
 20
-725.8251067772416
 10
10570.28988609521
 20
-725.2542031848663
 10
10572.72306125257
 20
-723.6284076856172
 10
10574.34885675182
 20
-721.1952325282609
 10
10574.91976034419
 20
-718.3251067772417
 10
10574.34885675182
 20
-715.4549810262224
 10
10572.72306125257
 20
-713.0218058688661
 10
10570.28988609521
 20
-711.396010369617
 10
10567.41976034419
 20
-710.8251067772417
 10
10564.54963459317
 20
-711.396010369617
 10
10562.11645943582
 20
-713.0218058688661
 10
10560.49066393657
 20
-715.4549810262224
 97
        0
 75
     0
 76
     1
 98
        0
450
        0
451
        0
460
0.0
461
0.0
452
        1
462
0.0
453
        0
470

  0
POINT
  5
2E8
330
2E0
100
AcDbEntity
  8
_2D寸法.2D
  6
Continuous
 62
     5
440
 16777216
370
     5
100
AcDbPoint
 10
9767.419760344196
 20
-725.8251067772416
 30
0.0
  0
LINE
  5
2E9
330
2E0
100
AcDbEntity
  8
_2D寸法.2D
  6
Continuous
 62
     5
440
 16777216
370
     5
100
AcDbLine
 10
9767.419760344196
 20
-710.8251067772417
 30
0.0
 11
9767.419760344196
 21
-568.3251067772416
 31
0.0
  0
POINT
  5
2EA
330
2E0
100
AcDbEntity
  8
_2D寸法.2D
  6
Continuous
 62
     5
440
 16777216
370
     5
100
AcDbPoint
 10
10567.41976034419
 20
-725.8251067772416
 30
0.0
  0
LINE
  5
2EB
330
2E0
100
AcDbEntity
  8
_2D寸法.2D
  6
Continuous
 62
     5
440
 16777216
370
     5
100
AcDbLine
 10
10567.41976034419
 20
-710.8251067772417
 30
0.0
 11
10567.41976034419
 21
-568.3251067772416
 31
0.0
  0
MTEXT
  5
2EC
102
{ACAD_XDICTIONARY
360
42E
102
}
330
2E0
100
AcDbEntity
  8
_2D寸法.2D
 62
     7
440
 16777216
370
     5
100
AcDbMText
 10
10077.41931034419
 20
-700.3251060619859
 30
0.0
 40
90.0
 41
0.0
 46
0.0
 71
     7
 72
     1
  1
\A1;800
  7
GENERATED_STYLE_1
 73
     1
 44
1.0
  0
ENDBLK
  5
2E2
330
2E0
100
AcDbEntity
  8
0
100
AcDbBlockEnd
  0
BLOCK
  5
379
330
378
100
AcDbEntity
  8
0
100
AcDbBlockBegin
  2
図面_1_4
 70
     0
 10
190.3453800737947
 20
53.70805679554632
 30
0.0
  3
図面_1_4
  1

  0
IMAGE
  5
37B
330
378
100
AcDbEntity
  8
0
 62
     7
160
               140
310
8C000000010000008400000006000000050000006F34835A0DCB6740FFBEB22C3BC26D4000000000000000006F34835A0DCB6740844AE69AA1DA4A4000000000000000004D48898E01DE7E40844AE69AA1DA4A4000000000000000004D48898E01DE7E40FFBEB22C3BC26D4000000000000000006F34835A0DCB6740FFBEB2
310
2C3BC26D400000000000000000
370
     5
100
AcDbRasterImage
 90
        0
 10
190.3453800737947
 20
53.70805679554632
 30
0.0
 11
0.2116666666666667
 21
0.0
 31
0.0
 12
0.0
 22
0.2116666666666666
 32
0.0
 13
1434.0
 23
871.0
340
37D
 70
     7
280
     1
281
    50
282
    50
283
     0
290
     0
360
37E
 71
     1
 91
        2
 14
-0.5
 24
-0.5
 14
1433.5
 24
870.5
  0
ENDBLK
  5
37A
330
378
100
AcDbEntity
  8
0
100
AcDbBlockEnd
  0
ENDSEC
  0
SECTION
  2
ENTITIES
  0
LWPOLYLINE
  5
6F
330
1F
100
AcDbEntity
  8
_パネル本体.OTHC-500
  6
Continuous
 62
   104
420
   171553
370
    25
100
AcDbPolyline
 90
        2
 70
   128
 43
0.0
 10
-455.0
 20
-13.5
 10
455.0
 20
-13.5
  0
LWPOLYLINE
  5
71
330
1F
100
AcDbEntity
  8
_パネル本体.OTHC-500
  6
Continuous
 62
   104
420
   171553
370
    25
100
AcDbPolyline
 90
        2
 70
   128
 43
0.0
 10
455.0
 20
-13.5
 10
455.0
 20
13.5
  0
LWPOLYLINE
  5
72
330
1F
100
AcDbEntity
  8
_パネル本体.OTHC-500
  6
Continuous
 62
   104
420
   171553
370
    25
100
AcDbPolyline
 90
        2
 70
   128
 43
0.0
 10
455.0
 20
13.5
 10
-455.0
 20
13.5
  0
LWPOLYLINE
  5
73
330
1F
100
AcDbEntity
  8
_パネル本体.OTHC-500
  6
Continuous
 62
   104
420
   171553
370
    25
100
AcDbPolyline
 90
        2
 70
   128
 43
0.0
 10
-455.0
 20
13.5
 10
-455.0
 20
-13.5
  0
WIPEOUT
  5
74
330
1F
100
AcDbEntity
  8
_支柱.OTHC-500
  6
Wipeout_Contour
 62
   254
 48
1520.476542075492
160
               140
310
8C0000000100000084000000060000000500000000000000005878C000000000000023C0000000000000000000000000002877C000000000000023C0000000000000000000000000002877C00000000000002340000000000000000000000000005878C00000000000002340000000000000000000000000005878C0000000
310
00000023C00000000000000000
370
     0
100
AcDbWipeout
 90
        0
 10
-389.5
 20
-9.5
 30
0.0
 11
19.0
 21
0.0
 31
0.0
 12
0.0
 22
19.0
 32
0.0
 13
1.0
 23
1.0
340
0
 70
    15
280
     1
281
    50
282
    50
283
     0
290
     0
360
0
 71
     2
 91
        5
 14
-0.5
 24
0.5
 14
0.5
 24
0.5
 14
0.5
 24
-0.5
 14
-0.5
 24
-0.5
 14
-0.5
 24
0.5
  0
HATCH
  5
77
330
1F
100
AcDbEntity
  8
_支柱.OTHC-500
  6
Continuous
 62
     7
420
 16777215
370
     0
100
AcDbHatch
 10
0.0
 20
0.0
 30
0.0
210
0.0
220
0.0
230
1.0
  2
スチール_0005
 70
     0
 71
     0
 91
        1
 92
        3
 72
     0
 73
     1
 93
        4
 10
-389.5
 20
-9.5
 10
-370.5
 20
-9.5
 10
-370.5
 20
9.5
 10
-389.5
 20
9.5
 97
        0
 75
     0
 76
     2
 52
0.0
 41
1.0
 77
     0
 78
     2
 53
44.99999999999997
 43
0.0
 44
0.0
 45
-47.72970773009193
 46
47.72970773009197
 79
     0
 53
44.99999999999997
 43
-15.90990257669731
 44
15.90990257669732
 45
-47.72970773009193
 46
47.72970773009197
 79
     0
 98
        0
  0
LWPOLYLINE
  5
78
330
1F
100
AcDbEntity
  8
_支柱.OTHC-500
  6
Continuous
 62
    30
420
 16737792
370
    25
100
AcDbPolyline
 90
        4
 70
   129
 43
0.0
 10
-389.5
 20
-9.5
 10
-370.5
 20
-9.5
 10
-370.5
 20
9.5
 10
-389.5
 20
9.5
  0
WIPEOUT
  5
79
330
1F
100
AcDbEntity
  8
_支柱.OTHC-500
  6
Wipeout_Contour
 62
   254
 48
1520.476542075492
160
               140
310
8C00000001000000840000000600000005000000000000000028774000000000000023C00000000000000000000000000058784000000000000023C000000000000000000000000000587840000000000000234000000000000000000000000000287740000000000000234000000000000000000000000000287740000000
310
00000023C00000000000000000
370
     0
100
AcDbWipeout
 90
        0
 10
370.5
 20
-9.5
 30
0.0
 11
19.0
 21
0.0
 31
0.0
 12
0.0
 22
19.0
 32
0.0
 13
1.0
 23
1.0
340
0
 70
    15
280
     1
281
    50
282
    50
283
     0
290
     0
360
0
 71
     2
 91
        5
 14
-0.5
 24
0.5
 14
0.5
 24
0.5
 14
0.5
 24
-0.5
 14
-0.5
 24
-0.5
 14
-0.5
 24
0.5
  0
HATCH
  5
7A
330
1F
100
AcDbEntity
  8
_支柱.OTHC-500
  6
Continuous
 62
     7
420
 16777215
370
     0
100
AcDbHatch
 10
0.0
 20
0.0
 30
0.0
210
0.0
220
0.0
230
1.0
  2
スチール_0005
 70
     0
 71
     0
 91
        1
 92
        3
 72
     0
 73
     1
 93
        4
 10
370.5
 20
-9.5
 10
389.5
 20
-9.5
 10
389.5
 20
9.5
 10
370.5
 20
9.5
 97
        0
 75
     0
 76
     2
 52
0.0
 41
1.0
 77
     0
 78
     2
 53
44.99999999999997
 43
0.0
 44
0.0
 45
-47.72970773009193
 46
47.72970773009197
 79
     0
 53
44.99999999999997
 43
-15.90990257669731
 44
15.90990257669732
 45
-47.72970773009193
 46
47.72970773009197
 79
     0
 98
        0
  0
LWPOLYLINE
  5
7B
330
1F
100
AcDbEntity
  8
_支柱.OTHC-500
  6
Continuous
 62
    30
420
 16737792
370
    25
100
AcDbPolyline
 90
        4
 70
   129
 43
0.0
 10
370.5
 20
-9.5
 10
389.5
 20
-9.5
 10
389.5
 20
9.5
 10
370.5
 20
9.5
  0
LWPOLYLINE
  5
7C
330
1F
100
AcDbEntity
  8
_キャスター.OTHC-500
  6
Continuous
 62
    30
420
 16737792
370
    15
100
AcDbPolyline
 90
        4
 70
   129
 43
0.0
 10
-383.0
 20
-490.0
 42
0.4142135623730951
 10
-380.0
 20
-493.0
 42
0.4142135623730951
 10
-377.0
 20
-490.0
 42
0.4142135623730951
 10
-380.0
 20
-487.0
 42
0.4142135623730951
  0
LWPOLYLINE
  5
7E
330
1F
100
AcDbEntity
  8
_キャスター.OTHC-500
  6
Continuous
 62
    30
420
 16737792
370
    15
100
AcDbPolyline
 90
        4
 70
   129
 43
0.0
 10
-383.0
 20
290.0000000000001
 42
0.4142135623730951
 10
-380.0
 20
287.0
 42
0.4142135623730951
 10
-377.0
 20
290.0000000000001
 42
0.4142135623730951
 10
-380.0
 20
293.0000000000001
 42
0.4142135623730951
  0
LWPOLYLINE
  5
7F
330
1F
100
AcDbEntity
  8
_キャスター.OTHC-500
  6
Continuous
 62
    30
420
 16737792
370
    15
100
AcDbPolyline
 90
        4
 70
   129
 43
0.0
 10
377.0
 20
-490.0
 42
0.4142135623730951
 10
380.0
 20
-493.0
 42
0.4142135623730951
 10
383.0
 20
-490.0
 42
0.4142135623730951
 10
380.0
 20
-487.0
 42
0.4142135623730951
  0
LWPOLYLINE
  5
80
330
1F
100
AcDbEntity
  8
_キャスター.OTHC-500
  6
Continuous
 62
    30
420
 16737792
370
    15
100
AcDbPolyline
 90
        4
 70
   129
 43
0.0
 10
377.0
 20
290.0000000000001
 42
0.4142135623730951
 10
380.0
 20
287.0
 42
0.4142135623730951
 10
383.0
 20
290.0000000000001
 42
0.4142135623730951
 10
380.0
 20
293.0000000000001
 42
0.4142135623730951
  0
LWPOLYLINE
  5
82
330
1F
100
AcDbEntity
  8
_パネル上部.OTHC-500
  6
_点線(0.4-0.4)
 62
   161
420
  4236799
370
     5
100
AcDbPolyline
 90
        2
 70
   128
 43
0.0
 10
-422.4999999999999
 20
-217.9670456309912
 10
-455.0
 20
-16.08819045102539
  0
LWPOLYLINE
  5
84
330
1F
100
AcDbEntity
  8
_パネル上部.OTHC-500
  6
_点線(0.4-0.4)
 62
   161
420
  4236799
370
     5
100
AcDbPolyline
 90
        2
 70
   128
 43
0.0
 10
-455.0
 20
9.99180685877946
 10
-455.0
 20
-16.08819045102539
  0
LWPOLYLINE
  5
85
330
1F
100
AcDbEntity
  8
_パネル上部.OTHC-500
  6
_点線(0.4-0.4)
 62
   161
420
  4236799
370
     5
100
AcDbPolyline
 90
        2
 70
   128
 43
0.0
 10
422.5
 20
-217.9670456309907
 10
-422.4999999999999
 20
-217.9670456309912
  0
LWPOLYLINE
  5
86
330
1F
100
AcDbEntity
  8
_パネル上部.OTHC-500
  6
_点線(0.4-0.4)
 62
   161
420
  4236799
370
     5
100
AcDbPolyline
 90
        2
 70
   128
 43
0.0
 10
-422.4999999999999
 20
-191.8870483211863
 10
-455.0
 20
9.99180685877946
  0
LWPOLYLINE
  5
87
330
1F
100
AcDbEntity
  8
_パネル上部.OTHC-500
  6
_点線(0.4-0.4)
 62
   161
420
  4236799
370
     5
100
AcDbPolyline
 90
        2
 70
   128
 43
0.0
 10
455.0
 20
9.991806858779682
 10
-455.0
 20
9.99180685877946
  0
LWPOLYLINE
  5
88
330
1F
100
AcDbEntity
  8
_パネル上部.OTHC-500
  6
_点線(0.4-0.4)
 62
   161
420
  4236799
370
     5
100
AcDbPolyline
 90
        2
 70
   128
 43
0.0
 10
-422.4999999999999
 20
-217.9670456309912
 10
-422.4999999999999
 20
-191.8870483211863
  0
LWPOLYLINE
  5
89
330
1F
100
AcDbEntity
  8
_パネル上部.OTHC-500
  6
_点線(0.4-0.4)
 62
   161
420
  4236799
370
     5
100
AcDbPolyline
 90
        2
 70
   128
 43
0.0
 10
422.4999999999999
 20
-191.8870483211859
 10
422.5
 20
-217.9670456309907
  0
LWPOLYLINE
  5
8A
330
1F
100
AcDbEntity
  8
_パネル上部.OTHC-500
  6
_点線(0.4-0.4)
 62
   161
420
  4236799
370
     5
100
AcDbPolyline
 90
        2
 70
   128
 43
0.0
 10
-422.4999999999999
 20
-191.8870483211863
 10
422.4999999999999
 20
-191.8870483211859
  0
LWPOLYLINE
  5
8B
330
1F
100
AcDbEntity
  8
_パネル上部.OTHC-500
  6
_点線(0.4-0.4)
 62
   161
420
  4236799
370
     5
100
AcDbPolyline
 90
        2
 70
   128
 43
0.0
 10
455.0
 20
-16.08819045102516
 10
455.0
 20
9.991806858779682
  0
LWPOLYLINE
  5
8C
330
1F
100
AcDbEntity
  8
_パネル上部.OTHC-500
  6
_点線(0.4-0.4)
 62
   161
420
  4236799
370
     5
100
AcDbPolyline
 90
        2
 70
   128
 43
0.0
 10
422.5
 20
-217.9670456309907
 10
455.0
 20
-16.08819045102516
  0
LWPOLYLINE
  5
8D
330
1F
100
AcDbEntity
  8
_パネル上部.OTHC-500
  6
_点線(0.4-0.4)
 62
   161
420
  4236799
370
     5
100
AcDbPolyline
 90
        2
 70
   128
 43
0.0
 10
422.4999999999999
 20
-191.8870483211859
 10
455.0
 20
9.991806858779682
  0
LWPOLYLINE
  5
8E
330
1F
100
AcDbEntity
  8
_キャスター.OTHC-500
  6
Continuous
 62
   161
420
  4236799
370
    15
100
AcDbPolyline
 90
        2
 70
   128
 43
0.0
 10
-399.9999999999998
 20
-530.0000000000002
 10
-399.9999999999998
 20
-526.3156986040724
  0
LWPOLYLINE
  5
8F
330
1F
100
AcDbEntity
  8
_キャスター.OTHC-500
  6
Continuous
 62
   161
420
  4236799
370
    15
100
AcDbPolyline
 90
        2
 70
   128
 43
0.0
 10
-399.9999999999998
 20
-526.3156986040724
 10
-399.9999999999998
 20
-516.2500000000002
  0
LWPOLYLINE
  5
90
330
1F
100
AcDbEntity
  8
_キャスター.OTHC-500
  6
Continuous
 62
   161
420
  4236799
370
    15
100
AcDbPolyline
 90
        2
 70
   128
 43
0.0
 10
-399.9999999999998
 20
-516.2500000000002
 10
-399.9999999999998
 20
-502.5000000000003
  0
LWPOLYLINE
  5
91
330
1F
100
AcDbEntity
  8
_キャスター.OTHC-500
  6
Continuous
 62
   161
420
  4236799
370
    15
100
AcDbPolyline
 90
        2
 70
   128
 43
0.0
 10
-359.9999999999999
 20
-530.0000000000002
 10
-399.9999999999998
 20
-530.0000000000002
  0
LWPOLYLINE
  5
92
330
1F
100
AcDbEntity
  8
_キャスター.OTHC-500
  6
Continuous
 62
   161
420
  4236799
370
    15
100
AcDbPolyline
 90
        2
 70
   128
 43
0.0
 10
-399.9999999999998
 20
-502.5000000000003
 10
-399.9999999999998
 20
-488.7500000000002
  0
LWPOLYLINE
  5
93
330
1F
100
AcDbEntity
  8
_キャスター.OTHC-500
  6
Continuous
 62
   161
420
  4236799
370
    15
100
AcDbPolyline
 90
        2
 70
   128
 43
0.0
 10
-399.9999999999998
 20
-478.6843013959282
 10
-399.9999999999998
 20
-475.0000000000002
  0
LWPOLYLINE
  5
94
330
1F
100
AcDbEntity
  8
_キャスター.OTHC-500
  6
Continuous
 62
   161
420
  4236799
370
    15
100
AcDbPolyline
 90
        2
 70
   128
 43
0.0
 10
-399.9999999999998
 20
-488.7500000000002
 10
-399.9999999999998
 20
-478.6843013959282
  0
LWPOLYLINE
  5
95
330
1F
100
AcDbEntity
  8
_キャスター.OTHC-500
  6
Continuous
 62
   161
420
  4236799
370
    15
100
AcDbPolyline
 90
        2
 70
   128
 43
0.0
 10
-359.9999999999999
 20
-530.0000000000002
 10
-359.9999999999999
 20
-526.3156986040724
  0
LWPOLYLINE
  5
96
330
1F
100
AcDbEntity
  8
_キャスター.OTHC-500
  6
Continuous
 62
   161
420
  4236799
370
    15
100
AcDbPolyline
 90
        2
 70
   128
 43
0.0
 10
-359.9999999999999
 20
-526.3156986040724
 10
-359.9999999999999
 20
-516.2500000000002
  0
LWPOLYLINE
  5
97
330
1F
100
AcDbEntity
  8
_キャスター.OTHC-500
  6
Continuous
 62
   161
420
  4236799
370
    15
100
AcDbPolyline
 90
        2
 70
   128
 43
0.0
 10
-359.9999999999999
 20
-516.2500000000002
 10
-359.9999999999999
 20
-502.5000000000003
  0
LWPOLYLINE
  5
98
330
1F
100
AcDbEntity
  8
_キャスター.OTHC-500
  6
Continuous
 62
   161
420
  4236799
370
    15
100
AcDbPolyline
 90
        2
 70
   128
 43
0.0
 10
-359.9999999999999
 20
-488.7500000000002
 10
-359.9999999999999
 20
-478.6843013959282
  0
LWPOLYLINE
  5
99
330
1F
100
AcDbEntity
  8
_キャスター.OTHC-500
  6
Continuous
 62
   161
420
  4236799
370
    15
100
AcDbPolyline
 90
        2
 70
   128
 43
0.0
 10
-359.9999999999999
 20
-502.5000000000003
 10
-359.9999999999999
 20
-488.7500000000002
  0
LWPOLYLINE
  5
9A
330
1F
100
AcDbEntity
  8
_キャスター.OTHC-500
  6
Continuous
 62
   161
420
  4236799
370
    15
100
AcDbPolyline
 90
        2
 70
   128
 43
0.0
 10
-359.9999999999999
 20
-478.6843013959282
 10
-359.9999999999999
 20
-475.0000000000002
  0
LWPOLYLINE
  5
9B
330
1F
100
AcDbEntity
  8
_キャスター.OTHC-500
  6
Continuous
 62
   161
420
  4236799
370
    15
100
AcDbPolyline
 90
        2
 70
   128
 43
0.0
 10
-359.9999999999999
 20
-475.0000000000002
 10
-399.9999999999998
 20
-475.0000000000002
  0
LWPOLYLINE
  5
9C
330
1F
100
AcDbEntity
  8
_キャスター.OTHC-500
  6
Continuous
 62
   161
420
  4236799
370
    15
100
AcDbPolyline
 90
        9
 70
   128
 43
0.0
 10
-398.9999999999998
 20
-474.0000000000001
 10
-398.9999999999998
 20
-476.1694333234286
 10
-398.9999999999998
 20
-482.3474567361836
 10
-398.9999999999998
 20
-491.5935221775952
 10
-398.9999999999998
 20
-502.5000000000003
 10
-398.9999999999998
 20
-513.4064778224053
 10
-398.9999999999998
 20
-522.6525432638168
 10
-398.9999999999998
 20
-528.8305666765719
 10
-398.9999999999998
 20
-531.0000000000002
  0
LWPOLYLINE
  5
9D
330
1F
100
AcDbEntity
  8
_キャスター.OTHC-500
  6
Continuous
 62
   161
420
  4236799
370
    15
100
AcDbPolyline
 90
        2
 70
   128
 43
0.0
 10
-398.9999999999998
 20
-474.0000000000001
 10
-360.9999999999999
 20
-474.0000000000001
  0
LWPOLYLINE
  5
9E
330
1F
100
AcDbEntity
  8
_キャスター.OTHC-500
  6
Continuous
 62
   161
420
  4236799
370
    15
100
AcDbPolyline
 90
        9
 70
   128
 43
0.0
 10
-360.9999999999999
 20
-474.0000000000001
 10
-360.9999999999999
 20
-476.1694333234286
 10
-360.9999999999999
 20
-482.3474567361836
 10
-360.9999999999999
 20
-491.5935221775952
 10
-360.9999999999999
 20
-502.5000000000003
 10
-360.9999999999999
 20
-513.4064778224053
 10
-360.9999999999999
 20
-522.6525432638168
 10
-360.9999999999999
 20
-528.8305666765719
 10
-360.9999999999999
 20
-531.0000000000002
  0
LWPOLYLINE
  5
9F
330
1F
100
AcDbEntity
  8
_キャスター.OTHC-500
  6
Continuous
 62
   161
420
  4236799
370
    15
100
AcDbPolyline
 90
        2
 70
   128
 43
0.0
 10
-398.9999999999998
 20
-531.0000000000002
 10
-360.9999999999999
 20
-531.0000000000002
  0
LWPOLYLINE
  5
A0
330
1F
100
AcDbEntity
  8
_補強リブ.OTHC-500
  6
Continuous
 62
   161
420
  4236799
370
    15
100
AcDbPolyline
 90
        2
 70
   128
 43
0.0
 10
-383.0
 20
9.499999999999911
 10
-383.0
 20
109.4999999999999
  0
LWPOLYLINE
  5
A2
330
1F
100
AcDbEntity
  8
_補強リブ.OTHC-500
  6
Continuous
 62
   161
420
  4236799
370
    15
100
AcDbPolyline
 90
        2
 70
   128
 43
0.0
 10
-377.0
 20
109.4999999999999
 10
-383.0
 20
109.4999999999999
  0
LWPOLYLINE
  5
A3
330
1F
100
AcDbEntity
  8
_補強リブ.OTHC-500
  6
Continuous
 62
   161
420
  4236799
370
    15
100
AcDbPolyline
 90
        2
 70
   128
 43
0.0
 10
-377.0
 20
9.499999999999911
 10
-377.0
 20
109.4999999999999
  0
LWPOLYLINE
  5
A4
330
1F
100
AcDbEntity
  8
_補強リブ.OTHC-500
  6
Continuous
 62
   161
420
  4236799
370
    15
100
AcDbPolyline
 90
        2
 70
   128
 43
0.0
 10
-377.0
 20
9.499999999999911
 10
-383.0
 20
9.499999999999911
  0
LWPOLYLINE
  5
A5
330
1F
100
AcDbEntity
  8
_キャスター.OTHC-500
  6
Continuous
 62
   161
420
  4236799
370
    15
100
AcDbPolyline
 90
        2
 70
   128
 43
0.0
 10
-400.0
 20
249.9999999999998
 10
-400.0
 20
253.6843013959277
  0
LWPOLYLINE
  5
A6
330
1F
100
AcDbEntity
  8
_キャスター.OTHC-500
  6
Continuous
 62
   161
420
  4236799
370
    15
100
AcDbPolyline
 90
        2
 70
   128
 43
0.0
 10
-400.0
 20
253.6843013959277
 10
-400.0
 20
263.7499999999998
  0
LWPOLYLINE
  5
A7
330
1F
100
AcDbEntity
  8
_キャスター.OTHC-500
  6
Continuous
 62
   161
420
  4236799
370
    15
100
AcDbPolyline
 90
        2
 70
   128
 43
0.0
 10
-400.0
 20
263.7499999999998
 10
-400.0
 20
277.4999999999998
  0
LWPOLYLINE
  5
A8
330
1F
100
AcDbEntity
  8
_キャスター.OTHC-500
  6
Continuous
 62
   161
420
  4236799
370
    15
100
AcDbPolyline
 90
        2
 70
   128
 43
0.0
 10
-360.0
 20
249.9999999999998
 10
-400.0
 20
249.9999999999998
  0
LWPOLYLINE
  5
A9
330
1F
100
AcDbEntity
  8
_キャスター.OTHC-500
  6
Continuous
 62
   161
420
  4236799
370
    15
100
AcDbPolyline
 90
        2
 70
   128
 43
0.0
 10
-400.0
 20
277.4999999999998
 10
-400.0
 20
291.2499999999997
  0
LWPOLYLINE
  5
AA
330
1F
100
AcDbEntity
  8
_キャスター.OTHC-500
  6
Continuous
 62
   161
420
  4236799
370
    15
100
AcDbPolyline
 90
        2
 70
   128
 43
0.0
 10
-400.0
 20
301.3156986040718
 10
-400.0
 20
304.9999999999997
  0
LWPOLYLINE
  5
AB
330
1F
100
AcDbEntity
  8
_キャスター.OTHC-500
  6
Continuous
 62
   161
420
  4236799
370
    15
100
AcDbPolyline
 90
        2
 70
   128
 43
0.0
 10
-400.0
 20
291.2499999999997
 10
-400.0
 20
301.3156986040718
  0
LWPOLYLINE
  5
AC
330
1F
100
AcDbEntity
  8
_キャスター.OTHC-500
  6
Continuous
 62
   161
420
  4236799
370
    15
100
AcDbPolyline
 90
        2
 70
   128
 43
0.0
 10
-360.0
 20
249.9999999999998
 10
-360.0
 20
253.6843013959277
  0
LWPOLYLINE
  5
AD
330
1F
100
AcDbEntity
  8
_キャスター.OTHC-500
  6
Continuous
 62
   161
420
  4236799
370
    15
100
AcDbPolyline
 90
        2
 70
   128
 43
0.0
 10
-360.0
 20
253.6843013959277
 10
-360.0
 20
263.7499999999998
  0
LWPOLYLINE
  5
AE
330
1F
100
AcDbEntity
  8
_キャスター.OTHC-500
  6
Continuous
 62
   161
420
  4236799
370
    15
100
AcDbPolyline
 90
        2
 70
   128
 43
0.0
 10
-360.0
 20
263.7499999999998
 10
-360.0
 20
277.4999999999998
  0
LWPOLYLINE
  5
AF
330
1F
100
AcDbEntity
  8
_キャスター.OTHC-500
  6
Continuous
 62
   161
420
  4236799
370
    15
100
AcDbPolyline
 90
        2
 70
   128
 43
0.0
 10
-360.0
 20
291.2499999999997
 10
-360.0
 20
301.3156986040718
  0
LWPOLYLINE
  5
B0
330
1F
100
AcDbEntity
  8
_キャスター.OTHC-500
  6
Continuous
 62
   161
420
  4236799
370
    15
100
AcDbPolyline
 90
        2
 70
   128
 43
0.0
 10
-360.0
 20
277.4999999999998
 10
-360.0
 20
291.2499999999997
  0
LWPOLYLINE
  5
B1
330
1F
100
AcDbEntity
  8
_キャスター.OTHC-500
  6
Continuous
 62
   161
420
  4236799
370
    15
100
AcDbPolyline
 90
        2
 70
   128
 43
0.0
 10
-360.0
 20
301.3156986040718
 10
-360.0
 20
304.9999999999997
  0
LWPOLYLINE
  5
B2
330
1F
100
AcDbEntity
  8
_キャスター.OTHC-500
  6
Continuous
 62
   161
420
  4236799
370
    15
100
AcDbPolyline
 90
        2
 70
   128
 43
0.0
 10
-360.0
 20
304.9999999999997
 10
-400.0
 20
304.9999999999997
  0
LWPOLYLINE
  5
B3
330
1F
100
AcDbEntity
  8
_キャスター.OTHC-500
  6
Continuous
 62
   161
420
  4236799
370
    15
100
AcDbPolyline
 90
        9
 70
   128
 43
0.0
 10
-399.0
 20
305.9999999999998
 10
-399.0
 20
303.8305666765714
 10
-399.0
 20
297.6525432638164
 10
-399.0
 20
288.4064778224048
 10
-399.0
 20
277.4999999999998
 10
-399.0
 20
266.5935221775947
 10
-399.0
 20
257.3474567361832
 10
-399.0
 20
251.1694333234281
 10
-399.0
 20
248.9999999999998
  0
LWPOLYLINE
  5
B4
330
1F
100
AcDbEntity
  8
_キャスター.OTHC-500
  6
Continuous
 62
   161
420
  4236799
370
    15
100
AcDbPolyline
 90
        2
 70
   128
 43
0.0
 10
-399.0
 20
305.9999999999998
 10
-361.0000000000001
 20
305.9999999999998
  0
LWPOLYLINE
  5
B5
330
1F
100
AcDbEntity
  8
_キャスター.OTHC-500
  6
Continuous
 62
   161
420
  4236799
370
    15
100
AcDbPolyline
 90
        9
 70
   128
 43
0.0
 10
-361.0000000000001
 20
305.9999999999998
 10
-361.0000000000001
 20
303.8305666765714
 10
-361.0000000000001
 20
297.6525432638164
 10
-361.0000000000001
 20
288.4064778224048
 10
-361.0000000000001
 20
277.4999999999998
 10
-361.0000000000001
 20
266.5935221775947
 10
-361.0000000000001
 20
257.3474567361832
 10
-361.0000000000001
 20
251.1694333234281
 10
-361.0000000000001
 20
248.9999999999998
  0
LWPOLYLINE
  5
B6
330
1F
100
AcDbEntity
  8
_キャスター.OTHC-500
  6
Continuous
 62
   161
420
  4236799
370
    15
100
AcDbPolyline
 90
        2
 70
   128
 43
0.0
 10
-399.0
 20
248.9999999999998
 10
-361.0000000000001
 20
248.9999999999998
  0
LWPOLYLINE
  5
B7
330
1F
100
AcDbEntity
  8
_キャスター.OTHC-500
  6
Continuous
 62
   161
420
  4236799
370
    15
100
AcDbPolyline
 90
        2
 70
   128
 43
0.0
 10
360.0000000000002
 20
-530.0
 10
360.0000000000002
 20
-526.3156986040721
  0
LWPOLYLINE
  5
B8
330
1F
100
AcDbEntity
  8
_キャスター.OTHC-500
  6
Continuous
 62
   161
420
  4236799
370
    15
100
AcDbPolyline
 90
        2
 70
   128
 43
0.0
 10
360.0000000000002
 20
-526.3156986040721
 10
360.0000000000002
 20
-516.25
  0
LWPOLYLINE
  5
B9
330
1F
100
AcDbEntity
  8
_キャスター.OTHC-500
  6
Continuous
 62
   161
420
  4236799
370
    15
100
AcDbPolyline
 90
        2
 70
   128
 43
0.0
 10
360.0000000000002
 20
-516.25
 10
360.0000000000002
 20
-502.5
  0
LWPOLYLINE
  5
BA
330
1F
100
AcDbEntity
  8
_キャスター.OTHC-500
  6
Continuous
 62
   161
420
  4236799
370
    15
100
AcDbPolyline
 90
        2
 70
   128
 43
0.0
 10
400.0
 20
-530.0
 10
360.0000000000002
 20
-530.0
  0
LWPOLYLINE
  5
BB
330
1F
100
AcDbEntity
  8
_キャスター.OTHC-500
  6
Continuous
 62
   161
420
  4236799
370
    15
100
AcDbPolyline
 90
        2
 70
   128
 43
0.0
 10
360.0000000000002
 20
-502.5
 10
360.0000000000002
 20
-488.7500000000001
  0
LWPOLYLINE
  5
BC
330
1F
100
AcDbEntity
  8
_キャスター.OTHC-500
  6
Continuous
 62
   161
420
  4236799
370
    15
100
AcDbPolyline
 90
        2
 70
   128
 43
0.0
 10
360.0000000000002
 20
-478.684301395928
 10
360.0000000000002
 20
-475.0
  0
LWPOLYLINE
  5
BD
330
1F
100
AcDbEntity
  8
_キャスター.OTHC-500
  6
Continuous
 62
   161
420
  4236799
370
    15
100
AcDbPolyline
 90
        2
 70
   128
 43
0.0
 10
360.0000000000002
 20
-488.7500000000001
 10
360.0000000000002
 20
-478.684301395928
  0
LWPOLYLINE
  5
BE
330
1F
100
AcDbEntity
  8
_キャスター.OTHC-500
  6
Continuous
 62
   161
420
  4236799
370
    15
100
AcDbPolyline
 90
        2
 70
   128
 43
0.0
 10
400.0
 20
-530.0
 10
400.0
 20
-526.3156986040721
  0
LWPOLYLINE
  5
BF
330
1F
100
AcDbEntity
  8
_キャスター.OTHC-500
  6
Continuous
 62
   161
420
  4236799
370
    15
100
AcDbPolyline
 90
        2
 70
   128
 43
0.0
 10
400.0
 20
-526.3156986040721
 10
400.0
 20
-516.25
  0
LWPOLYLINE
  5
C0
330
1F
100
AcDbEntity
  8
_キャスター.OTHC-500
  6
Continuous
 62
   161
420
  4236799
370
    15
100
AcDbPolyline
 90
        2
 70
   128
 43
0.0
 10
400.0
 20
-516.25
 10
400.0
 20
-502.5
  0
LWPOLYLINE
  5
C1
330
1F
100
AcDbEntity
  8
_キャスター.OTHC-500
  6
Continuous
 62
   161
420
  4236799
370
    15
100
AcDbPolyline
 90
        2
 70
   128
 43
0.0
 10
400.0
 20
-488.7500000000001
 10
400.0
 20
-478.684301395928
  0
LWPOLYLINE
  5
C2
330
1F
100
AcDbEntity
  8
_キャスター.OTHC-500
  6
Continuous
 62
   161
420
  4236799
370
    15
100
AcDbPolyline
 90
        2
 70
   128
 43
0.0
 10
400.0
 20
-502.5
 10
400.0
 20
-488.7500000000001
  0
LWPOLYLINE
  5
C3
330
1F
100
AcDbEntity
  8
_キャスター.OTHC-500
  6
Continuous
 62
   161
420
  4236799
370
    15
100
AcDbPolyline
 90
        2
 70
   128
 43
0.0
 10
400.0
 20
-478.684301395928
 10
400.0
 20
-475.0
  0
LWPOLYLINE
  5
C4
330
1F
100
AcDbEntity
  8
_キャスター.OTHC-500
  6
Continuous
 62
   161
420
  4236799
370
    15
100
AcDbPolyline
 90
        2
 70
   128
 43
0.0
 10
400.0
 20
-475.0
 10
360.0000000000002
 20
-475.0
  0
LWPOLYLINE
  5
C5
330
1F
100
AcDbEntity
  8
_キャスター.OTHC-500
  6
Continuous
 62
   161
420
  4236799
370
    15
100
AcDbPolyline
 90
        9
 70
   128
 43
0.0
 10
361.0000000000002
 20
-474.0000000000001
 10
361.0000000000002
 20
-476.1694333234284
 10
361.0000000000002
 20
-482.3474567361834
 10
361.0000000000002
 20
-491.5935221775949
 10
361.0000000000002
 20
-502.5
 10
361.0000000000002
 20
-513.406477822405
 10
361.0000000000002
 20
-522.6525432638165
 10
361.0000000000002
 20
-528.8305666765717
 10
361.0000000000002
 20
-531.0
  0
LWPOLYLINE
  5
C6
330
1F
100
AcDbEntity
  8
_キャスター.OTHC-500
  6
Continuous
 62
   161
420
  4236799
370
    15
100
AcDbPolyline
 90
        2
 70
   128
 43
0.0
 10
361.0000000000002
 20
-474.0000000000001
 10
399.0000000000001
 20
-474.0000000000001
  0
LWPOLYLINE
  5
C7
330
1F
100
AcDbEntity
  8
_キャスター.OTHC-500
  6
Continuous
 62
   161
420
  4236799
370
    15
100
AcDbPolyline
 90
        9
 70
   128
 43
0.0
 10
399.0000000000001
 20
-474.0000000000001
 10
399.0000000000001
 20
-476.1694333234284
 10
399.0000000000001
 20
-482.3474567361833
 10
399.0000000000001
 20
-491.5935221775949
 10
399.0000000000001
 20
-502.5
 10
399.0000000000001
 20
-513.406477822405
 10
399.0000000000001
 20
-522.6525432638165
 10
399.0000000000001
 20
-528.8305666765717
 10
399.0000000000001
 20
-531.0
  0
LWPOLYLINE
  5
C8
330
1F
100
AcDbEntity
  8
_キャスター.OTHC-500
  6
Continuous
 62
   161
420
  4236799
370
    15
100
AcDbPolyline
 90
        2
 70
   128
 43
0.0
 10
361.0000000000002
 20
-531.0
 10
399.0000000000001
 20
-531.0
  0
LWPOLYLINE
  5
C9
330
1F
100
AcDbEntity
  8
_補強リブ.OTHC-500
  6
Continuous
 62
   161
420
  4236799
370
    15
100
AcDbPolyline
 90
        2
 70
   128
 43
0.0
 10
377.0
 20
9.500000000000092
 10
377.0
 20
109.5000000000001
  0
LWPOLYLINE
  5
CA
330
1F
100
AcDbEntity
  8
_補強リブ.OTHC-500
  6
Continuous
 62
   161
420
  4236799
370
    15
100
AcDbPolyline
 90
        2
 70
   128
 43
0.0
 10
383.0
 20
109.5000000000001
 10
377.0
 20
109.5000000000001
  0
LWPOLYLINE
  5
CB
330
1F
100
AcDbEntity
  8
_補強リブ.OTHC-500
  6
Continuous
 62
   161
420
  4236799
370
    15
100
AcDbPolyline
 90
        2
 70
   128
 43
0.0
 10
383.0
 20
9.500000000000092
 10
383.0
 20
109.5000000000001
  0
LWPOLYLINE
  5
CC
330
1F
100
AcDbEntity
  8
_補強リブ.OTHC-500
  6
Continuous
 62
   161
420
  4236799
370
    15
100
AcDbPolyline
 90
        2
 70
   128
 43
0.0
 10
383.0
 20
9.500000000000092
 10
377.0
 20
9.500000000000092
  0
LWPOLYLINE
  5
CD
330
1F
100
AcDbEntity
  8
_キャスター.OTHC-500
  6
Continuous
 62
   161
420
  4236799
370
    15
100
AcDbPolyline
 90
        2
 70
   128
 43
0.0
 10
360.0
 20
250.0
 10
360.0
 20
253.684301395928
  0
LWPOLYLINE
  5
CE
330
1F
100
AcDbEntity
  8
_キャスター.OTHC-500
  6
Continuous
 62
   161
420
  4236799
370
    15
100
AcDbPolyline
 90
        2
 70
   128
 43
0.0
 10
360.0
 20
253.684301395928
 10
360.0
 20
263.75
  0
LWPOLYLINE
  5
CF
330
1F
100
AcDbEntity
  8
_キャスター.OTHC-500
  6
Continuous
 62
   161
420
  4236799
370
    15
100
AcDbPolyline
 90
        2
 70
   128
 43
0.0
 10
360.0
 20
263.75
 10
360.0
 20
277.4999999999999
  0
LWPOLYLINE
  5
D0
330
1F
100
AcDbEntity
  8
_キャスター.OTHC-500
  6
Continuous
 62
   161
420
  4236799
370
    15
100
AcDbPolyline
 90
        2
 70
   128
 43
0.0
 10
400.0
 20
250.0
 10
360.0
 20
250.0
  0
LWPOLYLINE
  5
D1
330
1F
100
AcDbEntity
  8
_キャスター.OTHC-500
  6
Continuous
 62
   161
420
  4236799
370
    15
100
AcDbPolyline
 90
        2
 70
   128
 43
0.0
 10
360.0
 20
277.4999999999999
 10
360.0
 20
291.25
  0
LWPOLYLINE
  5
D2
330
1F
100
AcDbEntity
  8
_キャスター.OTHC-500
  6
Continuous
 62
   161
420
  4236799
370
    15
100
AcDbPolyline
 90
        2
 70
   128
 43
0.0
 10
360.0
 20
301.3156986040721
 10
360.0
 20
304.9999999999999
  0
LWPOLYLINE
  5
D3
330
1F
100
AcDbEntity
  8
_キャスター.OTHC-500
  6
Continuous
 62
   161
420
  4236799
370
    15
100
AcDbPolyline
 90
        2
 70
   128
 43
0.0
 10
360.0
 20
291.25
 10
360.0
 20
301.3156986040721
  0
LWPOLYLINE
  5
D4
330
1F
100
AcDbEntity
  8
_キャスター.OTHC-500
  6
Continuous
 62
   161
420
  4236799
370
    15
100
AcDbPolyline
 90
        2
 70
   128
 43
0.0
 10
400.0
 20
250.0
 10
400.0
 20
253.6843013959279
  0
LWPOLYLINE
  5
D5
330
1F
100
AcDbEntity
  8
_キャスター.OTHC-500
  6
Continuous
 62
   161
420
  4236799
370
    15
100
AcDbPolyline
 90
        2
 70
   128
 43
0.0
 10
400.0
 20
253.6843013959279
 10
400.0
 20
263.75
  0
LWPOLYLINE
  5
D6
330
1F
100
AcDbEntity
  8
_キャスター.OTHC-500
  6
Continuous
 62
   161
420
  4236799
370
    15
100
AcDbPolyline
 90
        2
 70
   128
 43
0.0
 10
400.0
 20
263.75
 10
400.0
 20
277.4999999999999
  0
LWPOLYLINE
  5
D7
330
1F
100
AcDbEntity
  8
_キャスター.OTHC-500
  6
Continuous
 62
   161
420
  4236799
370
    15
100
AcDbPolyline
 90
        2
 70
   128
 43
0.0
 10
400.0
 20
291.25
 10
400.0
 20
301.3156986040721
  0
LWPOLYLINE
  5
D8
330
1F
100
AcDbEntity
  8
_キャスター.OTHC-500
  6
Continuous
 62
   161
420
  4236799
370
    15
100
AcDbPolyline
 90
        2
 70
   128
 43
0.0
 10
400.0
 20
277.4999999999999
 10
400.0
 20
291.25
  0
LWPOLYLINE
  5
D9
330
1F
100
AcDbEntity
  8
_キャスター.OTHC-500
  6
Continuous
 62
   161
420
  4236799
370
    15
100
AcDbPolyline
 90
        2
 70
   128
 43
0.0
 10
400.0
 20
301.3156986040721
 10
400.0
 20
304.9999999999999
  0
LWPOLYLINE
  5
DA
330
1F
100
AcDbEntity
  8
_キャスター.OTHC-500
  6
Continuous
 62
   161
420
  4236799
370
    15
100
AcDbPolyline
 90
        2
 70
   128
 43
0.0
 10
400.0
 20
304.9999999999999
 10
360.0
 20
304.9999999999999
  0
LWPOLYLINE
  5
DB
330
1F
100
AcDbEntity
  8
_キャスター.OTHC-500
  6
Continuous
 62
   161
420
  4236799
370
    15
100
AcDbPolyline
 90
        9
 70
   128
 43
0.0
 10
361.0
 20
306.0
 10
361.0
 20
303.8305666765717
 10
361.0
 20
297.6525432638166
 10
361.0
 20
288.406477822405
 10
361.0
 20
277.4999999999999
 10
361.0
 20
266.5935221775949
 10
361.0
 20
257.3474567361834
 10
361.0
 20
251.1694333234284
 10
361.0
 20
249.0
  0
LWPOLYLINE
  5
DC
330
1F
100
AcDbEntity
  8
_キャスター.OTHC-500
  6
Continuous
 62
   161
420
  4236799
370
    15
100
AcDbPolyline
 90
        2
 70
   128
 43
0.0
 10
361.0
 20
306.0
 10
398.9999999999999
 20
306.0
  0
LWPOLYLINE
  5
DD
330
1F
100
AcDbEntity
  8
_キャスター.OTHC-500
  6
Continuous
 62
   161
420
  4236799
370
    15
100
AcDbPolyline
 90
        9
 70
   128
 43
0.0
 10
398.9999999999999
 20
306.0
 10
398.9999999999999
 20
303.8305666765717
 10
398.9999999999999
 20
297.6525432638167
 10
398.9999999999999
 20
288.406477822405
 10
398.9999999999999
 20
277.4999999999999
 10
398.9999999999999
 20
266.5935221775949
 10
398.9999999999999
 20
257.3474567361834
 10
398.9999999999999
 20
251.1694333234284
 10
398.9999999999999
 20
249.0
  0
LWPOLYLINE
  5
DE
330
1F
100
AcDbEntity
  8
_キャスター.OTHC-500
  6
Continuous
 62
   161
420
  4236799
370
    15
100
AcDbPolyline
 90
        2
 70
   128
 43
0.0
 10
361.0
 20
249.0
 10
398.9999999999999
 20
249.0
  0
LWPOLYLINE
  5
DF
330
1F
100
AcDbEntity
  8
_脚.OTHC-500
  6
Continuous
 62
    30
420
 16737792
370
    15
100
AcDbPolyline
 90
        2
 70
   128
 43
0.0
 10
-389.9999999999999
 20
-478.9999999999992
 10
-390.0000000000001
 20
278.9999999999999
  0
LWPOLYLINE
  5
E1
330
1F
100
AcDbEntity
  8
_脚.OTHC-500
  6
Continuous
 62
    30
420
 16737792
370
    15
100
AcDbPolyline
 90
        2
 70
   128
 43
0.0
 10
-370.0
 20
129.4999999999999
 10
-370.0000000000001
 20
278.9999999999999
  0
LWPOLYLINE
  5
E2
330
1F
100
AcDbEntity
  8
_脚.OTHC-500
  6
Continuous
 62
    30
420
 16737792
370
    15
100
AcDbPolyline
 90
        2
 70
   128
 43
0.0
 10
-369.9999999999999
 20
-478.9999999999992
 10
-370.0
 20
109.4999999999999
  0
WIPEOUT
  5
E3
330
1F
100
AcDbEntity
  8
_脚先端.OTHC-500
  6
Wipeout_Contour
 62
   254
 48
2480.679233400306
160
               140
310
8C00000001000000840000000600000005000000FEFFFFFFFF6F78C00200000000507FC00000000000000000FEFFFFFFFF0F77C00200000000507FC00000000000000000FEFFFFFFFF0F77C00200000000F07DC00000000000000000FEFFFFFFFF6F78C00200000000F07DC00000000000000000FEFFFFFFFF6F78C0020000
310
0000507FC00000000000000000
370
     0
100
AcDbWipeout
 90
        0
 10
-390.9999999999999
 20
-501.0000000000001
 30
0.0
 11
22.0
 21
0.0
 31
0.0
 12
0.0
 22
22.0
 32
0.0
 13
1.0
 23
1.0
340
0
 70
    15
280
     1
281
    50
282
    50
283
     0
290
     0
360
0
 71
     2
 91
        5
 14
-0.5
 24
0.5
 14
0.5
 24
0.5
 14
0.5
 24
-0.5
 14
-0.5
 24
-0.5
 14
-0.5
 24
0.5
  0
LWPOLYLINE
  5
E5
330
1F
100
AcDbEntity
  8
_脚先端.OTHC-500
  6
Continuous
 62
    30
420
 16737792
370
    15
100
AcDbPolyline
 90
        2
 70
   128
 43
0.0
 10
-390.9999999999999
 20
-479.0
 10
-368.9999999999999
 20
-479.0
  0
LWPOLYLINE
  5
E6
330
1F
100
AcDbEntity
  8
_脚先端.OTHC-500
  6
Continuous
 62
    30
420
 16737792
370
    15
100
AcDbPolyline
 90
        2
 70
   128
 43
0.0
 10
-368.9999999999999
 20
-501.0000000000001
 10
-368.9999999999999
 20
-479.0
  0
LWPOLYLINE
  5
E7
330
1F
100
AcDbEntity
  8
_脚先端.OTHC-500
  6
Continuous
 62
    30
420
 16737792
370
    15
100
AcDbPolyline
 90
        2
 70
   128
 43
0.0
 10
-390.9999999999999
 20
-501.0000000000001
 10
-390.9999999999999
 20
-479.0
  0
LWPOLYLINE
  5
E8
330
1F
100
AcDbEntity
  8
_脚先端.OTHC-500
  6
Continuous
 62
    30
420
 16737792
370
    15
100
AcDbPolyline
 90
        2
 70
   128
 43
0.0
 10
-390.9999999999999
 20
-501.0000000000001
 10
-368.9999999999999
 20
-501.0000000000001
  0
WIPEOUT
  5
E9
330
1F
100
AcDbEntity
  8
_脚先端.OTHC-500
  6
Wipeout_Contour
 62
   254
 48
1912.618505316281
160
               140
310
8C0000000100000084000000060000000500000001000000007078C0FEFFFFFFFF6F7140000000000000000001000000001077C0FEFFFFFFFF6F7140000000000000000001000000001077C0FFFFFFFFFFCF7240000000000000000001000000007078C0FFFFFFFFFFCF7240000000000000000001000000007078C0FEFFFF
310
FFFF6F71400000000000000000
370
     0
100
AcDbWipeout
 90
        0
 10
-391.0000000000001
 20
278.9999999999999
 30
0.0
 11
22.0
 21
0.0
 31
0.0
 12
0.0
 22
22.00000000000006
 32
0.0
 13
1.0
 23
1.0
340
0
 70
    15
280
     1
281
    50
282
    50
283
     0
290
     0
360
0
 71
     2
 91
        5
 14
-0.5
 24
0.4999999999999988
 14
0.5
 24
0.4999999999999988
 14
0.5
 24
-0.5000000000000014
 14
-0.5
 24
-0.5000000000000014
 14
-0.5
 24
0.4999999999999988
  0
LWPOLYLINE
  5
EA
330
1F
100
AcDbEntity
  8
_脚先端.OTHC-500
  6
Continuous
 62
    30
420
 16737792
370
    15
100
AcDbPolyline
 90
        2
 70
   128
 43
0.0
 10
-391.0000000000001
 20
278.9999999999999
 10
-369.0000000000001
 20
278.9999999999999
  0
LWPOLYLINE
  5
EB
330
1F
100
AcDbEntity
  8
_脚先端.OTHC-500
  6
Continuous
 62
    30
420
 16737792
370
    15
100
AcDbPolyline
 90
        2
 70
   128
 43
0.0
 10
-369.0000000000001
 20
278.9999999999999
 10
-369.0000000000001
 20
300.9999999999999
  0
LWPOLYLINE
  5
EC
330
1F
100
AcDbEntity
  8
_脚先端.OTHC-500
  6
Continuous
 62
    30
420
 16737792
370
    15
100
AcDbPolyline
 90
        2
 70
   128
 43
0.0
 10
-391.0000000000001
 20
300.9999999999999
 10
-369.0000000000001
 20
300.9999999999999
  0
LWPOLYLINE
  5
ED
330
1F
100
AcDbEntity
  8
_脚先端.OTHC-500
  6
Continuous
 62
    30
420
 16737792
370
    15
100
AcDbPolyline
 90
        2
 70
   128
 43
0.0
 10
-391.0000000000001
 20
278.9999999999999
 10
-391.0000000000001
 20
300.9999999999999
  0
LWPOLYLINE
  5
EE
330
1F
100
AcDbEntity
  8
_脚.OTHC-500
  6
Continuous
 62
    30
420
 16737792
370
    15
100
AcDbPolyline
 90
        2
 70
   128
 43
0.0
 10
370.0
 20
129.5000000000001
 10
369.9999999999999
 20
279.0000000000004
  0
LWPOLYLINE
  5
EF
330
1F
100
AcDbEntity
  8
_脚.OTHC-500
  6
Continuous
 62
    30
420
 16737792
370
    15
100
AcDbPolyline
 90
        2
 70
   128
 43
0.0
 10
370.0000000000001
 20
-478.9999999999992
 10
370.0
 20
109.5000000000001
  0
LWPOLYLINE
  5
F0
330
1F
100
AcDbEntity
  8
_脚.OTHC-500
  6
Continuous
 62
    30
420
 16737792
370
    15
100
AcDbPolyline
 90
        2
 70
   128
 43
0.0
 10
390.0000000000001
 20
-478.9999999999992
 10
390.0
 20
279.0000000000004
  0
WIPEOUT
  5
F1
330
1F
100
AcDbEntity
  8
_脚先端.OTHC-500
  6
Wipeout_Contour
 62
   254
 48
2480.747937223067
160
               140
310
8C000000010000008400000006000000050000000200000000107740FEFFFFFFFF4F7FC000000000000000000200000000707840FEFFFFFFFF4F7FC000000000000000000200000000707840FEFFFFFFFFEF7DC000000000000000000200000000107740FEFFFFFFFFEF7DC000000000000000000200000000107740FEFFFF
310
FFFF4F7FC00000000000000000
370
     0
100
AcDbWipeout
 90
        0
 10
369.0000000000001
 20
-500.9999999999998
 30
0.0
 11
22.0
 21
0.0
 31
0.0
 12
0.0
 22
22.0
 32
0.0
 13
1.0
 23
1.0
340
0
 70
    15
280
     1
281
    50
282
    50
283
     0
290
     0
360
0
 71
     2
 91
        5
 14
-0.5
 24
0.5
 14
0.5
 24
0.5
 14
0.5
 24
-0.5
 14
-0.5
 24
-0.5
 14
-0.5
 24
0.5
  0
LWPOLYLINE
  5
F2
330
1F
100
AcDbEntity
  8
_脚先端.OTHC-500
  6
Continuous
 62
    30
420
 16737792
370
    15
100
AcDbPolyline
 90
        2
 70
   128
 43
0.0
 10
369.0000000000001
 20
-478.9999999999999
 10
391.0000000000001
 20
-478.9999999999999
  0
LWPOLYLINE
  5
F3
330
1F
100
AcDbEntity
  8
_脚先端.OTHC-500
  6
Continuous
 62
    30
420
 16737792
370
    15
100
AcDbPolyline
 90
        2
 70
   128
 43
0.0
 10
391.0000000000001
 20
-500.9999999999998
 10
391.0000000000001
 20
-478.9999999999999
  0
LWPOLYLINE
  5
F4
330
1F
100
AcDbEntity
  8
_脚先端.OTHC-500
  6
Continuous
 62
    30
420
 16737792
370
    15
100
AcDbPolyline
 90
        2
 70
   128
 43
0.0
 10
369.0000000000001
 20
-500.9999999999998
 10
369.0000000000001
 20
-478.9999999999999
  0
LWPOLYLINE
  5
F5
330
1F
100
AcDbEntity
  8
_脚先端.OTHC-500
  6
Continuous
 62
    30
420
 16737792
370
    15
100
AcDbPolyline
 90
        2
 70
   128
 43
0.0
 10
369.0000000000001
 20
-500.9999999999998
 10
391.0000000000001
 20
-500.9999999999998
  0
WIPEOUT
  5
F6
330
1F
100
AcDbEntity
  8
_脚先端.OTHC-500
  6
Wipeout_Contour
 62
   254
 48
1912.529768352704
160
               140
310
8C00000001000000840000000600000005000000FFFFFFFFFF0F774002000000007071400000000000000000FFFFFFFFFF6F784002000000007071400000000000000000FFFFFFFFFF6F78400300000000D072400000000000000000FFFFFFFFFF0F77400300000000D072400000000000000000FFFFFFFFFF0F7740020000
310
00007071400000000000000000
370
     0
100
AcDbWipeout
 90
        0
 10
368.9999999999999
 20
279.0000000000001
 30
0.0
 11
22.0
 21
0.0
 31
0.0
 12
0.0
 22
22.00000000000006
 32
0.0
 13
1.0
 23
1.0
340
0
 70
    15
280
     1
281
    50
282
    50
283
     0
290
     0
360
0
 71
     2
 91
        5
 14
-0.5
 24
0.4999999999999988
 14
0.5
 24
0.4999999999999988
 14
0.5
 24
-0.5000000000000014
 14
-0.5
 24
-0.5000000000000014
 14
-0.5
 24
0.4999999999999988
  0
LWPOLYLINE
  5
F7
330
1F
100
AcDbEntity
  8
_脚先端.OTHC-500
  6
Continuous
 62
    30
420
 16737792
370
    15
100
AcDbPolyline
 90
        2
 70
   128
 43
0.0
 10
368.9999999999999
 20
279.0000000000001
 10
391.0
 20
279.0000000000001
  0
LWPOLYLINE
  5
F8
330
1F
100
AcDbEntity
  8
_脚先端.OTHC-500
  6
Continuous
 62
    30
420
 16737792
370
    15
100
AcDbPolyline
 90
        2
 70
   128
 43
0.0
 10
391.0
 20
279.0000000000001
 10
391.0
 20
301.0000000000002
  0
LWPOLYLINE
  5
F9
330
1F
100
AcDbEntity
  8
_脚先端.OTHC-500
  6
Continuous
 62
    30
420
 16737792
370
    15
100
AcDbPolyline
 90
        2
 70
   128
 43
0.0
 10
368.9999999999999
 20
301.0000000000002
 10
391.0
 20
301.0000000000002
  0
LWPOLYLINE
  5
FA
330
1F
100
AcDbEntity
  8
_脚先端.OTHC-500
  6
Continuous
 62
    30
420
 16737792
370
    15
100
AcDbPolyline
 90
        2
 70
   128
 43
0.0
 10
368.9999999999999
 20
279.0000000000001
 10
368.9999999999999
 20
301.0000000000002
  0
LWPOLYLINE
  5
FB
330
1F
100
AcDbEntity
  8
_補強残.OTHC-500
  6
Continuous
 62
    30
420
 16737792
370
    15
100
AcDbPolyline
 90
        2
 70
   128
 43
0.0
 10
-370.0000000000001
 20
129.4999999999999
 10
370.0000000000001
 20
129.5000000000001
  0
LWPOLYLINE
  5
FD
330
1F
100
AcDbEntity
  8
_補強残.OTHC-500
  6
Continuous
 62
    30
420
 16737792
370
    15
100
AcDbPolyline
 90
        2
 70
   128
 43
0.0
 10
370.0000000000001
 20
129.5000000000001
 10
370.0000000000001
 20
109.5000000000002
  0
LWPOLYLINE
  5
FE
330
1F
100
AcDbEntity
  8
_補強残.OTHC-500
  6
Continuous
 62
    30
420
 16737792
370
    15
100
AcDbPolyline
 90
        2
 70
   128
 43
0.0
 10
-370.0
 20
109.4999999999999
 10
370.0000000000001
 20
109.5000000000002
  0
LWPOLYLINE
  5
FF
330
1F
100
AcDbEntity
  8
_補強残.OTHC-500
  6
Continuous
 62
    30
420
 16737792
370
    15
100
AcDbPolyline
 90
        2
 70
   128
 43
0.0
 10
-370.0000000000001
 20
129.4999999999999
 10
-370.0
 20
109.4999999999999
  0
LWPOLYLINE
  5
100
330
1F
100
AcDbEntity
  8
_補強残.OTHC-500
  6
_点線(0.4-0.4)
 62
    30
420
 16737792
370
     5
100
AcDbPolyline
 90
        2
 70
   128
 43
0.0
 10
-445.0
 20
-1.000000000000108
 10
-405.0
 20
-1.000000000000094
  0
LWPOLYLINE
  5
101
330
1F
100
AcDbEntity
  8
_補強残.OTHC-500
  6
_点線(0.4-0.4)
 62
    30
420
 16737792
370
     5
100
AcDbPolyline
 90
        2
 70
   128
 43
0.0
 10
-405.0
 20
-1.000000000000094
 10
-405.0
 20
-4.661165235168249
  0
LWPOLYLINE
  5
102
330
1F
100
AcDbEntity
  8
_補強残.OTHC-500
  6
_点線(0.4-0.4)
 62
    30
420
 16737792
370
     5
100
AcDbPolyline
 90
        2
 70
   128
 43
0.0
 10
-445.0
 20
-1.000000000000108
 10
-445.0
 20
-4.661165235168263
  0
LWPOLYLINE
  5
103
330
1F
100
AcDbEntity
  8
_補強残.OTHC-500
  6
_点線(0.4-0.4)
 62
    30
420
 16737792
370
     5
100
AcDbPolyline
 90
        2
 70
   128
 43
0.0
 10
-405.0
 20
-4.661165235168249
 10
-405.0
 20
-13.50000000000009
  0
LWPOLYLINE
  5
104
330
1F
100
AcDbEntity
  8
_補強残.OTHC-500
  6
_点線(0.4-0.4)
 62
    30
420
 16737792
370
     5
100
AcDbPolyline
 90
        2
 70
   128
 43
0.0
 10
-405.0
 20
-13.50000000000009
 10
-405.0
 20
-22.33883476483194
  0
LWPOLYLINE
  5
105
330
1F
100
AcDbEntity
  8
_補強残.OTHC-500
  6
_点線(0.4-0.4)
 62
    30
420
 16737792
370
     5
100
AcDbPolyline
 90
        2
 70
   128
 43
0.0
 10
-405.0
 20
-22.33883476483194
 10
-405.0
 20
-26.0000000000001
  0
LWPOLYLINE
  5
106
330
1F
100
AcDbEntity
  8
_補強残.OTHC-500
  6
_点線(0.4-0.4)
 62
    30
420
 16737792
370
     5
100
AcDbPolyline
 90
        2
 70
   128
 43
0.0
 10
-445.0
 20
-22.33883476483196
 10
-445.0
 20
-26.00000000000011
  0
LWPOLYLINE
  5
107
330
1F
100
AcDbEntity
  8
_補強残.OTHC-500
  6
_点線(0.4-0.4)
 62
    30
420
 16737792
370
     5
100
AcDbPolyline
 90
        2
 70
   128
 43
0.0
 10
-445.0
 20
-13.5000000000001
 10
-445.0
 20
-22.33883476483196
  0
LWPOLYLINE
  5
108
330
1F
100
AcDbEntity
  8
_補強残.OTHC-500
  6
_点線(0.4-0.4)
 62
    30
420
 16737792
370
     5
100
AcDbPolyline
 90
        2
 70
   128
 43
0.0
 10
-445.0
 20
-4.661165235168263
 10
-445.0
 20
-13.5000000000001
  0
LWPOLYLINE
  5
109
330
1F
100
AcDbEntity
  8
_補強残.OTHC-500
  6
_点線(0.4-0.4)
 62
    30
420
 16737792
370
     5
100
AcDbPolyline
 90
        2
 70
   128
 43
0.0
 10
-445.0
 20
-26.00000000000011
 10
-405.0
 20
-26.0000000000001
  0
LWPOLYLINE
  5
10A
330
1F
100
AcDbEntity
  8
_補強残.OTHC-500
  6
_点線(0.4-0.4)
 62
    30
420
 16737792
370
     5
100
AcDbPolyline
 90
        2
 70
   128
 43
0.0
 10
405.0
 20
-0.9999999999998617
 10
445.0000000000001
 20
-0.9999999999998484
  0
LWPOLYLINE
  5
10B
330
1F
100
AcDbEntity
  8
_補強残.OTHC-500
  6
_点線(0.4-0.4)
 62
    30
420
 16737792
370
     5
100
AcDbPolyline
 90
        2
 70
   128
 43
0.0
 10
445.0000000000001
 20
-0.9999999999998482
 10
445.0000000000001
 20
-4.661165235168002
  0
LWPOLYLINE
  5
10C
330
1F
100
AcDbEntity
  8
_補強残.OTHC-500
  6
_点線(0.4-0.4)
 62
    30
420
 16737792
370
     5
100
AcDbPolyline
 90
        2
 70
   128
 43
0.0
 10
405.0
 20
-0.9999999999998621
 10
405.0
 20
-4.661165235168017
  0
LWPOLYLINE
  5
10D
330
1F
100
AcDbEntity
  8
_補強残.OTHC-500
  6
_点線(0.4-0.4)
 62
    30
420
 16737792
370
     5
100
AcDbPolyline
 90
        2
 70
   128
 43
0.0
 10
445.0000000000001
 20
-4.661165235168002
 10
445.0000000000001
 20
-13.49999999999984
  0
LWPOLYLINE
  5
10E
330
1F
100
AcDbEntity
  8
_補強残.OTHC-500
  6
_点線(0.4-0.4)
 62
    30
420
 16737792
370
     5
100
AcDbPolyline
 90
        2
 70
   128
 43
0.0
 10
445.0000000000001
 20
-13.49999999999984
 10
445.0000000000001
 20
-22.33883476483169
  0
LWPOLYLINE
  5
10F
330
1F
100
AcDbEntity
  8
_補強残.OTHC-500
  6
_点線(0.4-0.4)
 62
    30
420
 16737792
370
     5
100
AcDbPolyline
 90
        2
 70
   128
 43
0.0
 10
445.0000000000001
 20
-22.33883476483169
 10
445.0000000000001
 20
-25.99999999999985
  0
LWPOLYLINE
  5
110
330
1F
100
AcDbEntity
  8
_補強残.OTHC-500
  6
_点線(0.4-0.4)
 62
    30
420
 16737792
370
     5
100
AcDbPolyline
 90
        2
 70
   128
 43
0.0
 10
405.0
 20
-22.3388347648317
 10
405.0
 20
-25.99999999999986
  0
LWPOLYLINE
  5
111
330
1F
100
AcDbEntity
  8
_補強残.OTHC-500
  6
_点線(0.4-0.4)
 62
    30
420
 16737792
370
     5
100
AcDbPolyline
 90
        2
 70
   128
 43
0.0
 10
405.0
 20
-13.49999999999986
 10
405.0
 20
-22.3388347648317
  0
LWPOLYLINE
  5
112
330
1F
100
AcDbEntity
  8
_補強残.OTHC-500
  6
_点線(0.4-0.4)
 62
    30
420
 16737792
370
     5
100
AcDbPolyline
 90
        2
 70
   128
 43
0.0
 10
405.0
 20
-4.661165235168017
 10
405.0
 20
-13.49999999999986
  0
LWPOLYLINE
  5
113
330
1F
100
AcDbEntity
  8
_補強残.OTHC-500
  6
_点線(0.4-0.4)
 62
    30
420
 16737792
370
     5
100
AcDbPolyline
 90
        2
 70
   128
 43
0.0
 10
405.0
 20
-25.99999999999986
 10
445.0000000000001
 20
-25.99999999999985
  0
DIMENSION
  5
123
330
1F
100
AcDbEntity
  8
_2D寸法.2D
  6
Continuous
 62
     5
370
     5
100
AcDbDimension
280
     0
  2
*D0
 10
455.0
 20
-750.0
 30
0.0
 11
21.5999993888855
 21
-686.9999992847441
 31
0.0
 70
   160
  1
<>
 71
     5
 42
-1.0
 73
     0
 74
     0
 75
     0
  3
GENERATED_STYLE__1
100
AcDbAlignedDimension
 13
-455.0
 23
13.5
 33
0.0
 14
455.0
 24
13.5
 34
0.0
100
AcDbRotatedDimension
  0
DIMENSION
  5
137
330
1F
100
AcDbEntity
  8
_2D寸法.2D
  6
Continuous
 62
     5
370
     5
100
AcDbDimension
280
     0
  2
*D2
 10
750.0
 20
300.0
 30
0.0
 11
686.9999992847441
 21
-78.40000061111448
 31
0.0
 70
   160
  1
<>
 71
     5
 42
-1.0
 73
     0
 74
     0
 75
     0
 53
90.0
  3
GENERATED_STYLE__2
100
AcDbAlignedDimension
 13
380.0
 23
-500.0
 33
0.0
 14
380.0
 24
300.0
 34
0.0
 50
90.0
100
AcDbRotatedDimension
  0
LINE
  5
139
330
1F
100
AcDbEntity
  8
_パネル本体.OTHC-500
  6
Continuous
 62
   104
420
   171553
370
    15
100
AcDbLine
 10
4958.372618338271
 20
-218.3251067772413
 30
0.0
 11
4048.37261833827
 21
-218.3251067772413
 31
0.0
  0
LINE
  5
13A
330
1F
100
AcDbEntity
  8
_パネル本体.OTHC-500
  6
Continuous
 62
   104
420
   171553
370
    15
100
AcDbLine
 10
4058.37261833827
 20
1601.674893222758
 30
0.0
 11
4048.37261833827
 21
1601.674893222758
 31
0.0
  0
LINE
  5
13B
330
1F
100
AcDbEntity
  8
_パネル本体.OTHC-500
  6
Continuous
 62
   104
420
   171553
370
    15
100
AcDbLine
 10
4048.37261833827
 20
-218.3251067772413
 30
0.0
 11
4048.37261833827
 21
1601.674893222758
 31
0.0
  0
LINE
  5
13C
330
1F
100
AcDbEntity
  8
_パネル本体.OTHC-500
  6
Continuous
 62
   104
420
   171553
370
    15
100
AcDbLine
 10
4958.372618338271
 20
-218.3251067772413
 30
0.0
 11
4958.372618338271
 21
1601.674893222758
 31
0.0
  0
LINE
  5
13D
330
1F
100
AcDbEntity
  8
_パネル本体.OTHC-500
  6
Continuous
 62
   104
420
   171553
370
    15
100
AcDbLine
 10
4958.372618338271
 20
1601.674893222758
 30
0.0
 11
4948.372618338271
 21
1601.674893222758
 31
0.0
  0
LINE
  5
13E
330
1F
100
AcDbEntity
  8
_パネル本体.OTHC-500
  6
Continuous
 62
   104
420
   171553
370
    15
100
AcDbLine
 10
4908.372618338271
 20
1601.674893222758
 30
0.0
 11
4098.37261833827
 21
1601.674893222758
 31
0.0
  0
LINE
  5
13F
330
1F
100
AcDbEntity
  8
_パネル上部.OTHC-500
  6
Continuous
 62
   161
420
  4236799
370
    15
100
AcDbLine
 10
4048.37261833827
 20
1611.334151485649
 30
0.0
 11
4080.87261833827
 21
2364.756295991123
 31
0.0
  0
LINE
  5
140
330
1F
100
AcDbEntity
  8
_パネル上部.OTHC-500
  6
Continuous
 62
   161
420
  4236799
370
    15
100
AcDbLine
 10
4048.37261833827
 20
1611.334151485649
 30
0.0
 11
4048.37261833827
 21
1618.322265703417
 31
0.0
  0
LINE
  5
141
330
1F
100
AcDbEntity
  8
_パネル上部.OTHC-500
  6
Continuous
 62
   161
420
  4236799
370
    15
100
AcDbLine
 10
4080.87261833827
 20
2364.756295991123
 30
0.0
 11
4925.872618338271
 21
2364.756295991123
 31
0.0
  0
LINE
  5
142
330
1F
100
AcDbEntity
  8
_パネル上部.OTHC-500
  6
Continuous
 62
   161
420
  4236799
370
    15
100
AcDbLine
 10
4048.37261833827
 20
1618.322265703417
 30
0.0
 11
4080.87261833827
 21
2371.744410208892
 31
0.0
  0
LINE
  5
143
330
1F
100
AcDbEntity
  8
_パネル上部.OTHC-500
  6
Continuous
 62
   161
420
  4236799
370
    15
100
AcDbLine
 10
4958.372618338271
 20
1611.334151485649
 30
0.0
 11
4948.372618338303
 21
1611.334151485649
 31
0.0
  0
LINE
  5
144
330
1F
100
AcDbEntity
  8
_パネル上部.OTHC-500
  6
Continuous
 62
   161
420
  4236799
370
    15
100
AcDbLine
 10
4908.372618338294
 20
1611.334151485649
 30
0.0
 11
4098.372618338308
 21
1611.334151485649
 31
0.0
  0
LINE
  5
145
330
1F
100
AcDbEntity
  8
_パネル上部.OTHC-500
  6
Continuous
 62
   161
420
  4236799
370
    15
100
AcDbLine
 10
4058.372618338299
 20
1611.334151485649
 30
0.0
 11
4048.37261833827
 21
1611.334151485649
 31
0.0
  0
LINE
  5
146
330
1F
100
AcDbEntity
  8
_パネル上部.OTHC-500
  6
Continuous
 62
   161
420
  4236799
370
    15
100
AcDbLine
 10
4080.87261833827
 20
2371.744410208892
 30
0.0
 11
4080.87261833827
 21
2364.756295991123
 31
0.0
  0
LINE
  5
147
330
1F
100
AcDbEntity
  8
_パネル上部.OTHC-500
  6
Continuous
 62
   161
420
  4236799
370
    15
100
AcDbLine
 10
4925.872618338271
 20
2364.756295991123
 30
0.0
 11
4925.872618338271
 21
2371.744410208891
 31
0.0
  0
LINE
  5
148
330
1F
100
AcDbEntity
  8
_パネル上部.OTHC-500
  6
Continuous
 62
   161
420
  4236799
370
    15
100
AcDbLine
 10
4925.872618338271
 20
2371.744410208891
 30
0.0
 11
4080.87261833827
 21
2371.744410208892
 31
0.0
  0
LINE
  5
149
330
1F
100
AcDbEntity
  8
_パネル上部.OTHC-500
  6
Continuous
 62
   161
420
  4236799
370
    15
100
AcDbLine
 10
4958.372618338271
 20
1618.322265703417
 30
0.0
 11
4958.372618338271
 21
1611.334151485649
 31
0.0
  0
LINE
  5
14A
330
1F
100
AcDbEntity
  8
_パネル上部.OTHC-500
  6
Continuous
 62
   161
420
  4236799
370
    15
100
AcDbLine
 10
4958.372618338271
 20
1611.334151485649
 30
0.0
 11
4925.872618338271
 21
2364.756295991123
 31
0.0
  0
LINE
  5
14B
330
1F
100
AcDbEntity
  8
_パネル上部.OTHC-500
  6
Continuous
 62
   161
420
  4236799
370
    15
100
AcDbLine
 10
4958.372618338271
 20
1618.322265703417
 30
0.0
 11
4925.872618338271
 21
2371.744410208891
 31
0.0
  0
LINE
  5
14C
330
1F
100
AcDbEntity
  8
_支柱.OTHC-500
  6
Continuous
 62
    30
420
 16737792
370
    15
100
AcDbLine
 10
4132.872618338271
 20
-261.3251067772408
 30
0.0
 11
4132.872618338271
 21
-218.3251067772413
 31
0.0
  0
LINE
  5
14D
330
1F
100
AcDbEntity
  8
_支柱.OTHC-500
  6
Continuous
 62
    30
420
 16737792
370
    15
100
AcDbLine
 10
4113.872618338271
 20
-261.3251067772408
 30
0.0
 11
4113.872618338271
 21
-218.3251067772413
 31
0.0
  0
LINE
  5
14E
330
1F
100
AcDbEntity
  8
_支柱.OTHC-500
  6
Continuous
 62
    30
420
 16737792
370
    15
100
AcDbLine
 10
4892.87261833827
 20
-261.3251067772408
 30
0.0
 11
4892.87261833827
 21
-218.3251067772413
 31
0.0
  0
LINE
  5
14F
330
1F
100
AcDbEntity
  8
_支柱.OTHC-500
  6
Continuous
 62
    30
420
 16737792
370
    15
100
AcDbLine
 10
4873.872618338271
 20
-261.3251067772408
 30
0.0
 11
4873.872618338271
 21
-218.3251067772413
 31
0.0
  0
LINE
  5
150
330
1F
100
AcDbEntity
  8
_脚先端.OTHC-500
  6
Continuous
 62
    30
420
 16737792
370
    15
100
AcDbLine
 10
4112.37261833827
 20
-303.3251067772413
 30
0.0
 11
4134.372618338271
 21
-303.3251067772413
 31
0.0
  0
LINE
  5
151
330
1F
100
AcDbEntity
  8
_脚先端.OTHC-500
  6
Continuous
 62
    30
420
 16737792
370
    15
100
AcDbLine
 10
4112.37261833827
 20
-261.3251067772413
 30
0.0
 11
4112.37261833827
 21
-303.3251067772413
 31
0.0
  0
LINE
  5
152
330
1F
100
AcDbEntity
  8
_脚先端.OTHC-500
  6
Continuous
 62
    30
420
 16737792
370
    15
100
AcDbLine
 10
4134.372618338271
 20
-303.3251067772413
 30
0.0
 11
4134.372618338271
 21
-261.3251067772413
 31
0.0
  0
LINE
  5
153
330
1F
100
AcDbEntity
  8
_脚先端.OTHC-500
  6
Continuous
 62
    30
420
 16737792
370
    15
100
AcDbLine
 10
4134.372618338271
 20
-261.3251067772413
 30
0.0
 11
4112.37261833827
 21
-261.3251067772413
 31
0.0
  0
LINE
  5
154
330
1F
100
AcDbEntity
  8
_キャスター.OTHC-500
  6
Continuous
 62
   161
420
  4236799
370
    15
100
AcDbLine
 10
4103.37261833827
 20
-340.8251067772415
 30
0.0
 11
4103.37261833827
 21
-354.5751067772416
 31
0.0
  0
LINE
  5
155
330
1F
100
AcDbEntity
  8
_キャスター.OTHC-500
  6
Continuous
 62
   161
420
  4236799
370
    15
100
AcDbLine
 10
4103.37261833827
 20
-327.0751067772414
 30
0.0
 11
4103.37261833827
 21
-340.8251067772415
 31
0.0
  0
LINE
  5
156
330
1F
100
AcDbEntity
  8
_キャスター.OTHC-500
  6
Continuous
 62
   161
420
  4236799
370
    15
100
AcDbLine
 10
4103.37261833827
 20
-354.5751067772416
 30
0.0
 11
4103.37261833827
 21
-364.6408053813136
 31
0.0
  0
LINE
  5
157
330
1F
100
AcDbEntity
  8
_キャスター.OTHC-500
  6
Continuous
 62
   161
420
  4236799
370
    15
100
AcDbLine
 10
4103.37261833827
 20
-317.0094081731694
 30
0.0
 11
4103.37261833827
 21
-327.0751067772414
 31
0.0
  0
LINE
  5
158
330
1F
100
AcDbEntity
  8
_キャスター.OTHC-500
  6
Continuous
 62
   161
420
  4236799
370
    15
100
AcDbLine
 10
4103.37261833827
 20
-364.6408053813136
 30
0.0
 11
4103.37261833827
 21
-368.3251067772415
 31
0.0
  0
LINE
  5
159
330
1F
100
AcDbEntity
  8
_キャスター.OTHC-500
  6
Continuous
 62
   161
420
  4236799
370
    15
100
AcDbLine
 10
4103.37261833827
 20
-313.3251067772416
 30
0.0
 11
4103.37261833827
 21
-317.0094081731694
 31
0.0
  0
LINE
  5
15A
330
1F
100
AcDbEntity
  8
_キャスター.OTHC-500
  6
Continuous
 62
   161
420
  4236799
370
    15
100
AcDbLine
 10
4103.37261833827
 20
-313.3251067772416
 30
0.0
 11
4104.372618338275
 21
-313.3251067772416
 31
0.0
  0
LINE
  5
15B
330
1F
100
AcDbEntity
  8
_キャスター.OTHC-500
  6
Continuous
 62
   161
420
  4236799
370
    15
100
AcDbLine
 10
4142.372618338275
 20
-313.3251067772416
 30
0.0
 11
4143.37261833827
 21
-313.3251067772416
 31
0.0
  0
LINE
  5
15C
330
1F
100
AcDbEntity
  8
_キャスター.OTHC-500
  6
Continuous
 62
   161
420
  4236799
370
    15
100
AcDbLine
 10
4143.37261833827
 20
-354.5751067772416
 30
0.0
 11
4143.37261833827
 21
-364.6408053813136
 31
0.0
  0
LINE
  5
15D
330
1F
100
AcDbEntity
  8
_キャスター.OTHC-500
  6
Continuous
 62
   161
420
  4236799
370
    15
100
AcDbLine
 10
4143.37261833827
 20
-340.8251067772415
 30
0.0
 11
4143.37261833827
 21
-354.5751067772416
 31
0.0
  0
LINE
  5
15E
330
1F
100
AcDbEntity
  8
_キャスター.OTHC-500
  6
Continuous
 62
   161
420
  4236799
370
    15
100
AcDbLine
 10
4143.37261833827
 20
-327.0751067772416
 30
0.0
 11
4143.37261833827
 21
-340.8251067772415
 31
0.0
  0
LINE
  5
15F
330
1F
100
AcDbEntity
  8
_キャスター.OTHC-500
  6
Continuous
 62
   161
420
  4236799
370
    15
100
AcDbLine
 10
4143.37261833827
 20
-317.0094081731694
 30
0.0
 11
4143.37261833827
 21
-327.0751067772416
 31
0.0
  0
LINE
  5
160
330
1F
100
AcDbEntity
  8
_キャスター.OTHC-500
  6
Continuous
 62
   161
420
  4236799
370
    15
100
AcDbLine
 10
4143.37261833827
 20
-364.6408053813136
 30
0.0
 11
4143.37261833827
 21
-368.3251067772415
 31
0.0
  0
LINE
  5
161
330
1F
100
AcDbEntity
  8
_キャスター.OTHC-500
  6
Continuous
 62
   161
420
  4236799
370
    15
100
AcDbLine
 10
4143.37261833827
 20
-313.3251067772416
 30
0.0
 11
4143.37261833827
 21
-317.0094081731694
 31
0.0
  0
LINE
  5
162
330
1F
100
AcDbEntity
  8
_キャスター.OTHC-500
  6
Continuous
 62
   161
420
  4236799
370
    15
100
AcDbLine
 10
4103.37261833827
 20
-368.3251067772415
 30
0.0
 11
4143.37261833827
 21
-368.3251067772415
 31
0.0
  0
LINE
  5
163
330
1F
100
AcDbEntity
  8
_キャスター.OTHC-500
  6
Continuous
 62
   161
420
  4236799
370
    15
100
AcDbLine
 10
4104.37261833827
 20
-329.9186289548392
 30
0.0
 11
4104.37261833827
 21
-320.6725635134276
 31
0.0
  0
LINE
  5
164
330
1F
100
AcDbEntity
  8
_キャスター.OTHC-500
  6
Continuous
 62
   161
420
  4236799
370
    15
100
AcDbLine
 10
4104.37261833827
 20
-320.6725635134276
 30
0.0
 11
4104.37261833827
 21
-314.4945401006726
 31
0.0
  0
LINE
  5
165
330
1F
100
AcDbEntity
  8
_キャスター.OTHC-500
  6
Continuous
 62
   161
420
  4236799
370
    15
100
AcDbLine
 10
4104.37261833827
 20
-314.4945401006726
 30
0.0
 11
4104.37261833827
 21
-312.3251067772443
 31
0.0
  0
LINE
  5
166
330
1F
100
AcDbEntity
  8
_キャスター.OTHC-500
  6
Continuous
 62
   161
420
  4236799
370
    15
100
AcDbLine
 10
4104.37261833827
 20
-340.8251067772413
 30
0.0
 11
4104.37261833827
 21
-329.9186289548392
 31
0.0
  0
LINE
  5
167
330
1F
100
AcDbEntity
  8
_キャスター.OTHC-500
  6
Continuous
 62
   161
420
  4236799
370
    15
100
AcDbLine
 10
4142.37261833827
 20
-312.3251067772443
 30
0.0
 11
4104.37261833827
 21
-312.3251067772443
 31
0.0
  0
LINE
  5
168
330
1F
100
AcDbEntity
  8
_キャスター.OTHC-500
  6
Continuous
 62
   161
420
  4236799
370
    15
100
AcDbLine
 10
4142.37261833827
 20
-340.8251067772413
 30
0.0
 11
4142.37261833827
 21
-329.9186289548392
 31
0.0
  0
LINE
  5
169
330
1F
100
AcDbEntity
  8
_キャスター.OTHC-500
  6
Continuous
 62
   161
420
  4236799
370
    15
100
AcDbLine
 10
4142.37261833827
 20
-329.9186289548392
 30
0.0
 11
4142.37261833827
 21
-320.6725635134276
 31
0.0
  0
LINE
  5
16A
330
1F
100
AcDbEntity
  8
_キャスター.OTHC-500
  6
Continuous
 62
   161
420
  4236799
370
    15
100
AcDbLine
 10
4142.37261833827
 20
-320.6725635134276
 30
0.0
 11
4142.37261833827
 21
-314.4945401006726
 31
0.0
  0
LINE
  5
16B
330
1F
100
AcDbEntity
  8
_キャスター.OTHC-500
  6
Continuous
 62
   161
420
  4236799
370
    15
100
AcDbLine
 10
4142.37261833827
 20
-314.4945401006726
 30
0.0
 11
4142.37261833827
 21
-312.3251067772443
 31
0.0
  0
LINE
  5
16C
330
1F
100
AcDbEntity
  8
_キャスター.OTHC-500
  6
Continuous
 62
   161
420
  4236799
370
    15
100
AcDbLine
 10
4142.37261833827
 20
-340.8251067772413
 30
0.0
 11
4104.37261833827
 21
-340.8251067772413
 31
0.0
  0
LINE
  5
16D
330
1F
100
AcDbEntity
  8
_キャスター.OTHC-500
  6
Continuous
 62
    30
420
 16737792
370
    15
100
AcDbLine
 10
4126.372618338271
 20
-312.3251067772443
 30
0.0
 11
4126.372618338271
 21
-303.3251067772413
 31
0.0
  0
LINE
  5
16E
330
1F
100
AcDbEntity
  8
_キャスター.OTHC-500
  6
Continuous
 62
    30
420
 16737792
370
    15
100
AcDbLine
 10
4120.37261833827
 20
-312.3251067772443
 30
0.0
 11
4120.37261833827
 21
-303.3251067772413
 31
0.0
  0
LINE
  5
16F
330
1F
100
AcDbEntity
  8
_脚先端.OTHC-500
  6
Continuous
 62
    30
420
 16737792
370
    15
100
AcDbLine
 10
4872.372618338271
 20
-303.3251067772413
 30
0.0
 11
4894.37261833827
 21
-303.3251067772413
 31
0.0
  0
LINE
  5
170
330
1F
100
AcDbEntity
  8
_脚先端.OTHC-500
  6
Continuous
 62
    30
420
 16737792
370
    15
100
AcDbLine
 10
4872.372618338271
 20
-261.3251067772413
 30
0.0
 11
4872.372618338271
 21
-303.3251067772413
 31
0.0
  0
LINE
  5
171
330
1F
100
AcDbEntity
  8
_脚先端.OTHC-500
  6
Continuous
 62
    30
420
 16737792
370
    15
100
AcDbLine
 10
4894.37261833827
 20
-303.3251067772413
 30
0.0
 11
4894.37261833827
 21
-261.3251067772413
 31
0.0
  0
LINE
  5
172
330
1F
100
AcDbEntity
  8
_脚先端.OTHC-500
  6
Continuous
 62
    30
420
 16737792
370
    15
100
AcDbLine
 10
4894.37261833827
 20
-261.3251067772413
 30
0.0
 11
4872.372618338271
 21
-261.3251067772413
 31
0.0
  0
LINE
  5
173
330
1F
100
AcDbEntity
  8
_キャスター.OTHC-500
  6
Continuous
 62
   161
420
  4236799
370
    15
100
AcDbLine
 10
4863.372618338271
 20
-340.8251067772415
 30
0.0
 11
4863.372618338271
 21
-354.5751067772416
 31
0.0
  0
LINE
  5
174
330
1F
100
AcDbEntity
  8
_キャスター.OTHC-500
  6
Continuous
 62
   161
420
  4236799
370
    15
100
AcDbLine
 10
4863.372618338271
 20
-327.0751067772414
 30
0.0
 11
4863.372618338271
 21
-340.8251067772415
 31
0.0
  0
LINE
  5
175
330
1F
100
AcDbEntity
  8
_キャスター.OTHC-500
  6
Continuous
 62
   161
420
  4236799
370
    15
100
AcDbLine
 10
4863.372618338271
 20
-354.5751067772416
 30
0.0
 11
4863.372618338271
 21
-364.6408053813136
 31
0.0
  0
LINE
  5
176
330
1F
100
AcDbEntity
  8
_キャスター.OTHC-500
  6
Continuous
 62
   161
420
  4236799
370
    15
100
AcDbLine
 10
4863.372618338271
 20
-317.0094081731694
 30
0.0
 11
4863.372618338271
 21
-327.0751067772414
 31
0.0
  0
LINE
  5
177
330
1F
100
AcDbEntity
  8
_キャスター.OTHC-500
  6
Continuous
 62
   161
420
  4236799
370
    15
100
AcDbLine
 10
4863.372618338271
 20
-364.6408053813136
 30
0.0
 11
4863.372618338271
 21
-368.3251067772415
 31
0.0
  0
LINE
  5
178
330
1F
100
AcDbEntity
  8
_キャスター.OTHC-500
  6
Continuous
 62
   161
420
  4236799
370
    15
100
AcDbLine
 10
4863.372618338271
 20
-313.3251067772416
 30
0.0
 11
4863.372618338271
 21
-317.0094081731694
 31
0.0
  0
LINE
  5
179
330
1F
100
AcDbEntity
  8
_キャスター.OTHC-500
  6
Continuous
 62
   161
420
  4236799
370
    15
100
AcDbLine
 10
4863.372618338271
 20
-313.3251067772416
 30
0.0
 11
4864.372618338267
 21
-313.3251067772416
 31
0.0
  0
LINE
  5
17A
330
1F
100
AcDbEntity
  8
_キャスター.OTHC-500
  6
Continuous
 62
   161
420
  4236799
370
    15
100
AcDbLine
 10
4902.372618338265
 20
-313.3251067772416
 30
0.0
 11
4903.37261833827
 21
-313.3251067772416
 31
0.0
  0
LINE
  5
17B
330
1F
100
AcDbEntity
  8
_キャスター.OTHC-500
  6
Continuous
 62
   161
420
  4236799
370
    15
100
AcDbLine
 10
4903.37261833827
 20
-354.5751067772416
 30
0.0
 11
4903.37261833827
 21
-364.6408053813136
 31
0.0
  0
LINE
  5
17C
330
1F
100
AcDbEntity
  8
_キャスター.OTHC-500
  6
Continuous
 62
   161
420
  4236799
370
    15
100
AcDbLine
 10
4903.37261833827
 20
-340.8251067772415
 30
0.0
 11
4903.37261833827
 21
-354.5751067772416
 31
0.0
  0
LINE
  5
17D
330
1F
100
AcDbEntity
  8
_キャスター.OTHC-500
  6
Continuous
 62
   161
420
  4236799
370
    15
100
AcDbLine
 10
4903.37261833827
 20
-327.0751067772416
 30
0.0
 11
4903.37261833827
 21
-340.8251067772415
 31
0.0
  0
LINE
  5
17E
330
1F
100
AcDbEntity
  8
_キャスター.OTHC-500
  6
Continuous
 62
   161
420
  4236799
370
    15
100
AcDbLine
 10
4903.37261833827
 20
-317.0094081731694
 30
0.0
 11
4903.37261833827
 21
-327.0751067772416
 31
0.0
  0
LINE
  5
17F
330
1F
100
AcDbEntity
  8
_キャスター.OTHC-500
  6
Continuous
 62
   161
420
  4236799
370
    15
100
AcDbLine
 10
4903.37261833827
 20
-364.6408053813136
 30
0.0
 11
4903.37261833827
 21
-368.3251067772415
 31
0.0
  0
LINE
  5
180
330
1F
100
AcDbEntity
  8
_キャスター.OTHC-500
  6
Continuous
 62
   161
420
  4236799
370
    15
100
AcDbLine
 10
4903.37261833827
 20
-313.3251067772416
 30
0.0
 11
4903.37261833827
 21
-317.0094081731694
 31
0.0
  0
LINE
  5
181
330
1F
100
AcDbEntity
  8
_キャスター.OTHC-500
  6
Continuous
 62
   161
420
  4236799
370
    15
100
AcDbLine
 10
4863.372618338271
 20
-368.3251067772415
 30
0.0
 11
4903.37261833827
 21
-368.3251067772415
 31
0.0
  0
LINE
  5
182
330
1F
100
AcDbEntity
  8
_キャスター.OTHC-500
  6
Continuous
 62
   161
420
  4236799
370
    15
100
AcDbLine
 10
4864.37261833827
 20
-329.9186289548392
 30
0.0
 11
4864.37261833827
 21
-320.6725635134276
 31
0.0
  0
LINE
  5
183
330
1F
100
AcDbEntity
  8
_キャスター.OTHC-500
  6
Continuous
 62
   161
420
  4236799
370
    15
100
AcDbLine
 10
4864.37261833827
 20
-320.6725635134276
 30
0.0
 11
4864.37261833827
 21
-314.4945401006726
 31
0.0
  0
LINE
  5
184
330
1F
100
AcDbEntity
  8
_キャスター.OTHC-500
  6
Continuous
 62
   161
420
  4236799
370
    15
100
AcDbLine
 10
4864.37261833827
 20
-314.4945401006726
 30
0.0
 11
4864.37261833827
 21
-312.3251067772443
 31
0.0
  0
LINE
  5
185
330
1F
100
AcDbEntity
  8
_キャスター.OTHC-500
  6
Continuous
 62
   161
420
  4236799
370
    15
100
AcDbLine
 10
4864.37261833827
 20
-340.8251067772413
 30
0.0
 11
4864.37261833827
 21
-329.9186289548392
 31
0.0
  0
LINE
  5
186
330
1F
100
AcDbEntity
  8
_キャスター.OTHC-500
  6
Continuous
 62
   161
420
  4236799
370
    15
100
AcDbLine
 10
4902.37261833827
 20
-312.3251067772443
 30
0.0
 11
4864.37261833827
 21
-312.3251067772443
 31
0.0
  0
LINE
  5
187
330
1F
100
AcDbEntity
  8
_キャスター.OTHC-500
  6
Continuous
 62
   161
420
  4236799
370
    15
100
AcDbLine
 10
4902.37261833827
 20
-340.8251067772413
 30
0.0
 11
4902.37261833827
 21
-329.9186289548392
 31
0.0
  0
LINE
  5
188
330
1F
100
AcDbEntity
  8
_キャスター.OTHC-500
  6
Continuous
 62
   161
420
  4236799
370
    15
100
AcDbLine
 10
4902.37261833827
 20
-329.9186289548392
 30
0.0
 11
4902.37261833827
 21
-320.6725635134276
 31
0.0
  0
LINE
  5
189
330
1F
100
AcDbEntity
  8
_キャスター.OTHC-500
  6
Continuous
 62
   161
420
  4236799
370
    15
100
AcDbLine
 10
4902.37261833827
 20
-320.6725635134276
 30
0.0
 11
4902.37261833827
 21
-314.4945401006726
 31
0.0
  0
LINE
  5
18A
330
1F
100
AcDbEntity
  8
_キャスター.OTHC-500
  6
Continuous
 62
   161
420
  4236799
370
    15
100
AcDbLine
 10
4902.37261833827
 20
-314.4945401006726
 30
0.0
 11
4902.37261833827
 21
-312.3251067772443
 31
0.0
  0
LINE
  5
18B
330
1F
100
AcDbEntity
  8
_キャスター.OTHC-500
  6
Continuous
 62
   161
420
  4236799
370
    15
100
AcDbLine
 10
4902.37261833827
 20
-340.8251067772413
 30
0.0
 11
4864.37261833827
 21
-340.8251067772413
 31
0.0
  0
LINE
  5
18C
330
1F
100
AcDbEntity
  8
_キャスター.OTHC-500
  6
Continuous
 62
    30
420
 16737792
370
    15
100
AcDbLine
 10
4886.37261833827
 20
-312.3251067772437
 30
0.0
 11
4886.37261833827
 21
-303.3251067772413
 31
0.0
  0
LINE
  5
18D
330
1F
100
AcDbEntity
  8
_キャスター.OTHC-500
  6
Continuous
 62
    30
420
 16737792
370
    15
100
AcDbLine
 10
4880.37261833827
 20
-312.3251067772437
 30
0.0
 11
4880.37261833827
 21
-303.3251067772413
 31
0.0
  0
LINE
  5
18E
330
1F
100
AcDbEntity
  8
_補強残.OTHC-500
  6
Continuous
 62
    30
420
 16737792
370
    15
100
AcDbLine
 10
4872.372618338271
 20
-302.3251067772414
 30
0.0
 11
4134.372618338271
 21
-302.3251067772414
 31
0.0
  0
LINE
  5
18F
330
1F
100
AcDbEntity
  8
_補強残.OTHC-500
  6
Continuous
 62
    30
420
 16737792
370
    15
100
AcDbLine
 10
4873.372618338271
 20
-261.3251067772406
 30
0.0
 11
4873.372618338271
 21
-252.3251067772413
 31
0.0
  0
LINE
  5
190
330
1F
100
AcDbEntity
  8
_補強残.OTHC-500
  6
Continuous
 62
    30
420
 16737792
370
    15
100
AcDbLine
 10
4873.372618338271
 20
-252.3251067772413
 30
0.0
 11
4133.37261833827
 21
-252.3251067772413
 31
0.0
  0
LINE
  5
191
330
1F
100
AcDbEntity
  8
_補強残.OTHC-500
  6
Continuous
 62
    30
420
 16737792
370
    15
100
AcDbLine
 10
4133.37261833827
 20
-261.3251067772408
 30
0.0
 11
4133.37261833827
 21
-252.3251067772413
 31
0.0
  0
LINE
  5
192
330
1F
100
AcDbEntity
  8
_補強残.OTHC-500
  6
Continuous
 62
    30
420
 16737792
370
    15
100
AcDbLine
 10
4098.37261833827
 20
1610.51372798759
 30
0.0
 11
4098.37261833827
 21
1612.926137941451
 31
0.0
  0
LINE
  5
193
330
1F
100
AcDbEntity
  8
_補強残.OTHC-500
  6
Continuous
 62
    30
420
 16737792
370
    15
100
AcDbLine
 10
4098.37261833827
 20
1601.674893222758
 30
0.0
 11
4098.37261833827
 21
1610.51372798759
 31
0.0
  0
LINE
  5
194
330
1F
100
AcDbEntity
  8
_補強残.OTHC-500
  6
Continuous
 62
    30
420
 16737792
370
    15
100
AcDbLine
 10
4098.37261833827
 20
1592.836058457927
 30
0.0
 11
4098.37261833827
 21
1601.674893222758
 31
0.0
  0
LINE
  5
195
330
1F
100
AcDbEntity
  8
_補強残.OTHC-500
  6
Continuous
 62
    30
420
 16737792
370
    15
100
AcDbLine
 10
4098.37261833827
 20
1589.174893222758
 30
0.0
 11
4098.37261833827
 21
1592.836058457927
 31
0.0
  0
LINE
  5
196
330
1F
100
AcDbEntity
  8
_補強残.OTHC-500
  6
Continuous
 62
    30
420
 16737792
370
    15
100
AcDbLine
 10
4098.37261833827
 20
1589.174893222758
 30
0.0
 11
4058.37261833827
 21
1589.174893222758
 31
0.0
  0
LINE
  5
197
330
1F
100
AcDbEntity
  8
_補強残.OTHC-500
  6
Continuous
 62
    30
420
 16737792
370
    15
100
AcDbLine
 10
4058.37261833827
 20
1589.174893222758
 30
0.0
 11
4058.37261833827
 21
1592.836058457927
 31
0.0
  0
LINE
  5
198
330
1F
100
AcDbEntity
  8
_補強残.OTHC-500
  6
Continuous
 62
    30
420
 16737792
370
    15
100
AcDbLine
 10
4058.37261833827
 20
1592.836058457927
 30
0.0
 11
4058.37261833827
 21
1601.674893222758
 31
0.0
  0
LINE
  5
199
330
1F
100
AcDbEntity
  8
_補強残.OTHC-500
  6
Continuous
 62
    30
420
 16737792
370
    15
100
AcDbLine
 10
4058.37261833827
 20
1601.674893222758
 30
0.0
 11
4058.37261833827
 21
1610.51372798759
 31
0.0
  0
LINE
  5
19A
330
1F
100
AcDbEntity
  8
_補強残.OTHC-500
  6
Continuous
 62
    30
420
 16737792
370
    15
100
AcDbLine
 10
4058.37261833827
 20
1610.51372798759
 30
0.0
 11
4058.37261833827
 21
1612.926137941451
 31
0.0
  0
LINE
  5
19B
330
1F
100
AcDbEntity
  8
_補強残.OTHC-500
  6
Continuous
 62
    30
420
 16737792
370
    15
100
AcDbLine
 10
4948.372618338271
 20
1610.51372798759
 30
0.0
 11
4948.372618338271
 21
1612.926137941451
 31
0.0
  0
LINE
  5
19C
330
1F
100
AcDbEntity
  8
_補強残.OTHC-500
  6
Continuous
 62
    30
420
 16737792
370
    15
100
AcDbLine
 10
4948.372618338271
 20
1601.674893222758
 30
0.0
 11
4948.372618338271
 21
1610.51372798759
 31
0.0
  0
LINE
  5
19D
330
1F
100
AcDbEntity
  8
_補強残.OTHC-500
  6
Continuous
 62
    30
420
 16737792
370
    15
100
AcDbLine
 10
4948.372618338271
 20
1592.836058457927
 30
0.0
 11
4948.372618338271
 21
1601.674893222758
 31
0.0
  0
LINE
  5
19E
330
1F
100
AcDbEntity
  8
_補強残.OTHC-500
  6
Continuous
 62
    30
420
 16737792
370
    15
100
AcDbLine
 10
4948.372618338271
 20
1589.174893222758
 30
0.0
 11
4948.372618338271
 21
1592.836058457927
 31
0.0
  0
LINE
  5
19F
330
1F
100
AcDbEntity
  8
_補強残.OTHC-500
  6
Continuous
 62
    30
420
 16737792
370
    15
100
AcDbLine
 10
4948.372618338271
 20
1589.174893222758
 30
0.0
 11
4908.372618338271
 21
1589.174893222758
 31
0.0
  0
LINE
  5
1A0
330
1F
100
AcDbEntity
  8
_補強残.OTHC-500
  6
Continuous
 62
    30
420
 16737792
370
    15
100
AcDbLine
 10
4908.372618338271
 20
1589.174893222758
 30
0.0
 11
4908.372618338271
 21
1592.836058457927
 31
0.0
  0
LINE
  5
1A1
330
1F
100
AcDbEntity
  8
_補強残.OTHC-500
  6
Continuous
 62
    30
420
 16737792
370
    15
100
AcDbLine
 10
4908.372618338271
 20
1592.836058457927
 30
0.0
 11
4908.372618338271
 21
1601.674893222758
 31
0.0
  0
LINE
  5
1A2
330
1F
100
AcDbEntity
  8
_補強残.OTHC-500
  6
Continuous
 62
    30
420
 16737792
370
    15
100
AcDbLine
 10
4908.372618338271
 20
1601.674893222758
 30
0.0
 11
4908.372618338271
 21
1610.51372798759
 31
0.0
  0
LINE
  5
1A3
330
1F
100
AcDbEntity
  8
_補強残.OTHC-500
  6
Continuous
 62
    30
420
 16737792
370
    15
100
AcDbLine
 10
4908.372618338271
 20
1610.51372798759
 30
0.0
 11
4908.372618338271
 21
1612.926137941451
 31
0.0
  0
LWPOLYLINE
  5
1A5
330
1F
100
AcDbEntity
  8
#2D_OTHC-500.2D
  6
_点線(0.4-0.4)
 62
     7
370
    15
100
AcDbPolyline
 90
        4
 70
   129
 43
0.0
 10
4113.872618338271
 20
-218.3250878803767
 10
4132.872618338271
 20
-218.3250878803767
 10
4132.872618338271
 20
1571.674893222759
 10
4113.872618338271
 20
1571.674893222759
  0
LWPOLYLINE
  5
1A6
330
1F
100
AcDbEntity
  8
#2D_OTHC-500.2D
  6
_点線(0.4-0.4)
 62
     7
370
    15
100
AcDbPolyline
 90
        4
 70
   129
 43
0.0
 10
4873.872618338271
 20
-218.3250878803767
 10
4892.87261833827
 20
-218.3250878803767
 10
4892.87261833827
 20
1571.674893222759
 10
4873.872618338271
 20
1571.674893222759
  0
LWPOLYLINE
  5
1A7
330
1F
100
AcDbEntity
  8
#2D_OTHC-500.2D
  6
_点線(0.4-0.4)
 62
     7
370
    15
100
AcDbPolyline
 90
        4
 70
   129
 43
0.0
 10
4048.37261833827
 20
1611.674893222758
 10
4080.87261833827
 20
2391.674893222759
 10
4925.872618338271
 20
2391.674893222759
 10
4958.372618338271
 20
1611.674893222758
  0
LINE
  5
1A8
330
1F
100
AcDbEntity
  8
#2D_OTHC-500.2D
  6
_点線(0.4-0.4)
 62
     7
370
    15
100
AcDbLine
 10
4048.37261833827
 20
1576.674893222759
 30
0.0
 11
4958.372618338271
 21
1576.674893222759
 31
0.0
  0
LINE
  5
1A9
330
1F
100
AcDbEntity
  8
#2D_OTHC-500.2D
  6
_点線(0.4-0.4)
 62
     7
370
    15
100
AcDbLine
 10
4958.372618338271
 20
1636.674893222759
 30
0.0
 11
4048.37261833827
 21
1636.674893222759
 31
0.0
  0
DIMENSION
  5
1B7
330
1F
100
AcDbEntity
  8
_2D寸法.2D
  6
Continuous
 62
     5
370
     5
100
AcDbDimension
280
     0
  2
*D3
 10
4958.372618338271
 20
-718.3251067772413
 30
0.0
 11
4521.372625279588
 21
-665.8251061811949
 31
0.0
 70
   160
  1
<>
 71
     5
 42
-1.0
 73
     0
 74
     0
 75
     0
  3
GENERATED_STYLE__3
100
AcDbAlignedDimension
 13
4048.37261833827
 23
-218.3251067772413
 33
0.0
 14
4958.372618338271
 24
-218.3251067772413
 34
0.0
100
AcDbRotatedDimension
  0
DIMENSION
  5
1C6
330
1F
100
AcDbEntity
  8
_2D寸法.2D
  6
Continuous
 62
     5
370
     5
100
AcDbDimension
280
     0
  2
*D4
 10
3753.37261833827
 20
-218.3251067772413
 30
0.0
 11
3700.872617742224
 21
-275.3251057587847
 31
0.0
 70
   160
  1
<>
 71
     5
 42
-1.0
 73
     0
 74
     0
 75
     0
 53
90.0
  3
GENERATED_STYLE__4
100
AcDbAlignedDimension
 13
4103.37261833827
 23
-368.3251186229651
 33
0.0
 14
4048.37261833827
 24
-218.3251067772413
 34
0.0
 50
90.0
100
AcDbRotatedDimension
  0
DIMENSION
  5
1D4
330
1F
100
AcDbEntity
  8
_2D寸法.2D
  6
Continuous
 62
     5
370
     5
100
AcDbDimension
280
     0
  2
*D5
 10
3753.37261833827
 20
1601.674893222759
 30
0.0
 11
3700.872617742224
 21
708.0080149030187
 31
0.0
 70
   160
  1
<>
 71
     5
 42
-1.0
 73
     0
 74
     0
 75
     0
 53
90.0
  3
GENERATED_STYLE__4
100
AcDbAlignedDimension
 13
4048.37261833827
 23
-218.3251067772413
 33
0.0
 14
4048.37261833827
 24
1601.674893222759
 34
0.0
 50
90.0
100
AcDbRotatedDimension
  0
DIMENSION
  5
1E1
330
1F
100
AcDbEntity
  8
_2D寸法.2D
  6
Continuous
 62
     5
370
     5
100
AcDbDimension
280
     0
  2
*D6
 10
3753.37261833827
 20
1611.674893222758
 30
0.0
 11
3700.872617742224
 21
1618.674892883251
 31
0.0
 70
   160
  1
<>
 71
     5
 42
-1.0
 73
     0
 74
     0
 75
     0
 53
90.0
  3
GENERATED_STYLE__4
100
AcDbAlignedDimension
 13
4048.37261833827
 23
1601.674893222759
 33
0.0
 14
4048.37261833827
 24
1611.674893222758
 34
0.0
 50
90.0
100
AcDbRotatedDimension
  0
DIMENSION
  5
1EF
330
1F
100
AcDbEntity
  8
_2D寸法.2D
  6
Continuous
 62
     5
370
     5
100
AcDbDimension
280
     0
  2
*D7
 10
3753.37261833827
 20
2391.674893222759
 30
0.0
 11
3700.872617742224
 21
2019.674900164078
 31
0.0
 70
   160
  1
<>
 71
     5
 42
-1.0
 73
     0
 74
     0
 75
     0
 53
90.0
  3
GENERATED_STYLE__4
100
AcDbAlignedDimension
 13
4048.37261833827
 23
1611.674893222758
 33
0.0
 14
4080.87261833827
 24
2391.674893222759
 34
0.0
 50
90.0
100
AcDbRotatedDimension
  0
DIMENSION
  5
1FD
330
1F
100
AcDbEntity
  8
_2D寸法.2D
  6
Continuous
 62
     5
370
     5
100
AcDbDimension
280
     0
  2
*D8
 10
4925.872618338271
 20
2581.674893222758
 30
0.0
 11
4521.372625279588
 21
2634.174893818805
 31
0.0
 70
   160
  1
<>
 71
     5
 42
-1.0
 73
     0
 74
     0
 75
     0
  3
GENERATED_STYLE__3
100
AcDbAlignedDimension
 13
4080.87261833827
 23
2364.756295991123
 33
0.0
 14
4925.872618338271
 24
2364.756295991123
 34
0.0
100
AcDbRotatedDimension
  0
DIMENSION
  5
20B
330
1F
100
AcDbEntity
  8
_2D寸法.2D
  6
Continuous
 62
     5
370
     5
100
AcDbDimension
280
     0
  2
*D9
 10
4113.37261833827
 20
-568.3251067772413
 30
0.0
 11
4002.872368851347
 21
-515.825106181195
 31
0.0
 70
   160
  1
<>
 71
     5
 42
-1.0
 73
     0
 74
     0
 75
     0
  3
GENERATED_STYLE__3
100
AcDbAlignedDimension
 13
4048.37261833827
 23
-218.3251067772413
 33
0.0
 14
4113.37261833827
 24
-261.325107078245
 34
0.0
100
AcDbRotatedDimension
  0
DIMENSION
  5
219
330
1F
100
AcDbEntity
  8
_2D寸法.2D
  6
Continuous
 62
     5
370
     5
100
AcDbDimension
280
     0
  2
*D10
 10
4958.372618338271
 20
-568.3251067772413
 30
0.0
 11
4847.872368851348
 21
-515.825106181195
 31
0.0
 70
   160
  1
<>
 71
     5
 42
-1.0
 73
     0
 74
     0
 75
     0
  3
GENERATED_STYLE__3
100
AcDbAlignedDimension
 13
4893.37261833827
 23
-262.3251067772413
 33
0.0
 14
4958.372618338271
 24
-218.3251067772413
 34
0.0
100
AcDbRotatedDimension
  0
DIMENSION
  5
227
330
1F
100
AcDbEntity
  8
_2D寸法.2D
  6
Continuous
 62
     5
370
     5
100
AcDbDimension
280
     0
  2
*D11
 10
5253.37261833827
 20
1614.174893222759
 30
0.0
 11
5200.872617742223
 21
1543.674643735835
 31
0.0
 70
   160
  1
<>
 71
     5
 42
-1.0
 73
     0
 74
     0
 75
     0
 53
90.0
  3
GENERATED_STYLE__4
100
AcDbAlignedDimension
 13
4948.372618338271
 23
1589.174893222758
 33
0.0
 14
4948.372618338271
 24
1614.174893222759
 34
0.0
 50
90.0
100
AcDbRotatedDimension
  0
DIMENSION
  5
235
330
1F
100
AcDbEntity
  8
_2D寸法.2D
  6
Continuous
 62
     5
370
     5
100
AcDbDimension
280
     0
  2
*D12
 10
5403.37261833827
 20
1601.674893222758
 30
0.0
 11
5350.872617742224
 21
633.008014903018
 31
0.0
 70
   160
  1
<>
 71
     5
 42
-1.0
 73
     0
 74
     0
 75
     0
 53
90.0
  3
GENERATED_STYLE__4
100
AcDbAlignedDimension
 13
4903.37261833827
 23
-368.3251067772415
 33
0.0
 14
4928.37261833827
 24
1601.674893222758
 34
0.0
 50
90.0
100
AcDbRotatedDimension
  0
DIMENSION
  5
243
330
1F
100
AcDbEntity
  8
_2D寸法.2D
  6
Continuous
 62
     5
370
     5
100
AcDbDimension
280
     0
  2
*D13
 10
5553.37261833827
 20
2391.674893222759
 30
0.0
 11
5500.872617742224
 21
1028.008014903018
 31
0.0
 70
   160
  1
<>
 71
     5
 42
-1.0
 73
     0
 74
     0
 75
     0
 53
90.0
  3
GENERATED_STYLE__4
100
AcDbAlignedDimension
 13
4903.37261833827
 23
-368.3251067772415
 33
0.0
 14
4925.872618338271
 24
2391.674893222759
 34
0.0
 50
90.0
100
AcDbRotatedDimension
  0
DIMENSION
  5
252
330
1F
100
AcDbEntity
  8
_2D寸法.2D
  6
Continuous
 62
     5
370
     5
100
AcDbDimension
280
     0
  2
*D14
 10
5253.37261833827
 20
-302.3251067772414
 30
0.0
 11
5200.872617742223
 21
-413.8253562641646
 31
0.0
 70
   160
  1
<>
 71
     5
 42
-1.0
 73
     0
 74
     0
 75
     0
 53
90.0
  3
GENERATED_STYLE__4
100
AcDbAlignedDimension
 13
4903.37261833827
 23
-368.3251067772415
 33
0.0
 14
4893.37261833827
 24
-302.3251067772414
 34
0.0
 50
90.0
100
AcDbRotatedDimension
  0
DIMENSION
  5
25F
330
1F
100
AcDbEntity
  8
_2D寸法.2D
  6
Continuous
 62
     5
370
     5
100
AcDbDimension
280
     0
  2
*D15
 10
5253.37261833827
 20
-262.3251067772413
 30
0.0
 11
5114.622614314956
 21
-270.3251071167494
 31
0.0
 70
   160
  1
<>
 71
     5
 42
-1.0
 73
     0
 74
     0
 75
     0
 53
90.0
  3
GENERATED_STYLE__4
100
AcDbAlignedDimension
 13
4893.37261833827
 23
-302.3251067772414
 33
0.0
 14
4893.37261833827
 24
-262.3251067772413
 34
0.0
 50
90.0
100
AcDbRotatedDimension
  0
DIMENSION
  5
26D
330
1F
100
AcDbEntity
  8
_2D寸法.2D
  6
Continuous
 62
     5
370
     5
100
AcDbDimension
280
     0
  2
*D16
 10
5253.37261833827
 20
-218.3251067772413
 30
0.0
 11
5200.872617742223
 21
-148.8248579693343
 31
0.0
 70
   160
  1
<>
 71
     5
 42
-1.0
 73
     0
 74
     0
 75
     0
 53
90.0
  3
GENERATED_STYLE__4
100
AcDbAlignedDimension
 13
4893.37261833827
 23
-262.3251067772413
 33
0.0
 14
4958.372618338271
 24
-218.3251067772413
 34
0.0
 50
90.0
100
AcDbRotatedDimension
  0
MTEXT
  5
26E
102
{ACAD_XDICTIONARY
360
426
102
}
330
1F
100
AcDbEntity
  8
_2Dテキスト.2D
  6
Continuous
 62
     7
370
     5
100
AcDbMText
 10
4267.37161833827
 20
1971.005453355887
 30
0.0
 40
75.0
 41
0.0
 46
0.0
 71
     4
 72
     1
  1
\A1;上パネル
  7
GENERATED_STYLE_1
 73
     1
 44
1.0
  0
MTEXT
  5
270
102
{ACAD_XDICTIONARY
360
428
102
}
330
1F
100
AcDbEntity
  8
_2Dテキスト.2D
  6
Continuous
 62
     7
370
     5
100
AcDbMText
 10
4267.37248414346
 20
811.6990829292337
 30
0.0
 40
75.0
 41
0.0
 46
0.0
 71
     4
 72
     1
  1
\A1;下パネル
  7
GENERATED_STYLE_1
 73
     1
 44
1.0
  0
MTEXT
  5
271
102
{ACAD_XDICTIONARY
360
42A
102
}
102
{ACAD_REACTORS
330
272
102
}
330
1F
100
AcDbEntity
  8
_2Dテキスト.2D
  6
Continuous
 62
     7
370
     5
100
AcDbMText
 10
5138.606903486337
 20
1821.091609926805
 30
0.0
 40
75.0
 41
0.0
 46
0.0
 71
     4
 72
     1
  1
\A1;トルクヒンジ
  7
GENERATED_STYLE_1
 73
     1
 44
1.0
  0
LEADER
  5
272
330
1F
100
AcDbEntity
  8
_2Dテキスト.2D
  6
Continuous
 62
     5
370
     5
100
AcDbLeader
  3
GENERATED_STYLE__5
 73
     0
 40
87.56345177664973
 41
541.3705583756344
 76
     3
 10
4948.372618338271
 20
1601.674893222758
 30
0.0
 10
5006.606903486337
 20
1821.091609926805
 30
0.0
 10
5138.516903486337
 20
1821.091609926805
 30
0.0
340
271
  0
MTEXT
  5
274
102
{ACAD_XDICTIONARY
360
42C
102
}
102
{ACAD_REACTORS
330
275
102
}
330
1F
100
AcDbEntity
  8
_2Dテキスト.2D
  6
Continuous
 62
     7
370
     5
100
AcDbMText
 10
5083.106903486338
 20
894.1384558020589
 30
0.0
 40
75.0
 41
0.0
 46
0.0
 71
     4
 72
     1
  1
\A1;支柱脚
  7
GENERATED_STYLE_1
 73
     1
 44
1.0
  0
LEADER
  5
275
330
1F
100
AcDbEntity
  8
_2Dテキスト.2D
  6
Continuous
 62
     5
370
     5
100
AcDbLeader
  3
GENERATED_STYLE__5
 73
     0
 40
86.80203045685278
 41
278.6802030456852
 76
     3
 10
4892.87261833827
 20
676.6749026711912
 30
0.0
 10
4951.106903486337
 20
894.1384558020589
 30
0.0
 10
5083.016903486337
 20
894.1384558020589
 30
0.0
340
274
  0
LINE
  5
276
330
1F
100
AcDbEntity
  8
_パネル本体.OTHC-500
  6
Continuous
 62
   104
420
   171553
370
    15
100
AcDbLine
 10
10280.91976034419
 20
-218.3251067772417
 30
0.0
 11
10253.91976034419
 21
-218.3251067772417
 31
0.0
  0
LINE
  5
277
330
1F
100
AcDbEntity
  8
_パネル本体.OTHC-500
  6
Continuous
 62
   104
420
   171553
370
    15
100
AcDbLine
 10
10253.91976034419
 20
-218.3251067772417
 30
0.0
 11
10253.91976034419
 21
1601.674893222758
 31
0.0
  0
LINE
  5
278
330
1F
100
AcDbEntity
  8
_パネル本体.OTHC-500
  6
Continuous
 62
   104
420
   171553
370
    15
100
AcDbLine
 10
10280.91976034419
 20
1601.674893222758
 30
0.0
 11
10280.91976034419
 21
-218.3251067772418
 31
0.0
  0
LINE
  5
279
330
1F
100
AcDbEntity
  8
_パネル本体.OTHC-500
  6
Continuous
 62
   104
420
   171553
370
    15
100
AcDbLine
 10
10253.91976034419
 20
1601.674893222758
 30
0.0
 11
10280.91976034419
 21
1601.674893222758
 31
0.0
  0
LINE
  5
27A
330
1F
100
AcDbEntity
  8
_パネル上部.OTHC-500
  6
Continuous
 62
   161
420
  4236799
370
    15
100
AcDbLine
 10
10049.4527147132
 20
2364.756295991122
 30
0.0
 11
10075.53271202301
 21
2371.74441020889
 31
0.0
  0
LINE
  5
27B
330
1F
100
AcDbEntity
  8
_パネル上部.OTHC-500
  6
Continuous
 62
   161
420
  4236799
370
    15
100
AcDbLine
 10
10277.41156720297
 20
1618.322265703417
 30
0.0
 11
10251.33156989317
 21
1611.334151485649
 31
0.0
  0
LINE
  5
27C
330
1F
100
AcDbEntity
  8
_パネル上部.OTHC-500
  6
Continuous
 62
   161
420
  4236799
370
    15
100
AcDbLine
 10
10251.33156989317
 20
1611.334151485649
 30
0.0
 11
10049.4527147132
 21
2364.756295991122
 31
0.0
  0
LINE
  5
27D
330
1F
100
AcDbEntity
  8
_パネル上部.OTHC-500
  6
Continuous
 62
   161
420
  4236799
370
    15
100
AcDbLine
 10
10277.41156720297
 20
1618.322265703417
 30
0.0
 11
10075.53271202301
 21
2371.74441020889
 31
0.0
  0
LINE
  5
27E
330
1F
100
AcDbEntity
  8
_支柱.OTHC-500
  6
Continuous
 62
    30
420
 16737792
370
    15
100
AcDbLine
 10
10257.91976034419
 20
-262.3251067772417
 30
0.0
 11
10257.91976034419
 21
-218.3251067772415
 31
0.0
  0
LINE
  5
27F
330
1F
100
AcDbEntity
  8
_支柱.OTHC-500
  6
Continuous
 62
    30
420
 16737792
370
    15
100
AcDbLine
 10
10276.91976034419
 20
-262.3251067772417
 30
0.0
 11
10276.91976034419
 21
-218.3251067772415
 31
0.0
  0
LINE
  5
280
330
1F
100
AcDbEntity
  8
_脚.OTHC-500
  6
Continuous
 62
    30
420
 16737792
370
    15
100
AcDbLine
 10
10546.41976034419
 20
-302.3251067772417
 30
0.0
 11
9788.419760344194
 21
-302.3251067772417
 31
0.0
  0
LINE
  5
281
330
1F
100
AcDbEntity
  8
_脚.OTHC-500
  6
Continuous
 62
    30
420
 16737792
370
    15
100
AcDbLine
 10
10546.41976034419
 20
-262.3251067772417
 30
0.0
 11
9788.419760344194
 21
-262.3251067772417
 31
0.0
  0
LINE
  5
282
330
1F
100
AcDbEntity
  8
_脚先端.OTHC-500
  6
Continuous
 62
    30
420
 16737792
370
    15
100
AcDbLine
 10
9788.419760344197
 20
-303.3251067772417
 30
0.0
 11
9766.419760344195
 21
-303.3251067772417
 31
0.0
  0
LINE
  5
283
330
1F
100
AcDbEntity
  8
_脚先端.OTHC-500
  6
Continuous
 62
    30
420
 16737792
370
    15
100
AcDbLine
 10
9766.419760344195
 20
-303.3251067772417
 30
0.0
 11
9766.419760344195
 21
-261.3251067772417
 31
0.0
  0
LINE
  5
284
330
1F
100
AcDbEntity
  8
_脚先端.OTHC-500
  6
Continuous
 62
    30
420
 16737792
370
    15
100
AcDbLine
 10
9788.419760344197
 20
-303.3251067772417
 30
0.0
 11
9788.419760344197
 21
-261.3251067772417
 31
0.0
  0
LINE
  5
285
330
1F
100
AcDbEntity
  8
_脚先端.OTHC-500
  6
Continuous
 62
    30
420
 16737792
370
    15
100
AcDbLine
 10
9788.419760344197
 20
-261.3251067772417
 30
0.0
 11
9766.419760344195
 21
-261.3251067772417
 31
0.0
  0
LINE
  5
286
330
1F
100
AcDbEntity
  8
_脚先端.OTHC-500
  6
Continuous
 62
    30
420
 16737792
370
    15
100
AcDbLine
 10
10568.41976034419
 20
-303.3251067772417
 30
0.0
 11
10546.41976034419
 21
-303.3251067772417
 31
0.0
  0
LINE
  5
287
330
1F
100
AcDbEntity
  8
_脚先端.OTHC-500
  6
Continuous
 62
    30
420
 16737792
370
    15
100
AcDbLine
 10
10546.41976034419
 20
-303.3251067772417
 30
0.0
 11
10546.41976034419
 21
-261.3251067772417
 31
0.0
  0
LINE
  5
288
330
1F
100
AcDbEntity
  8
_脚先端.OTHC-500
  6
Continuous
 62
    30
420
 16737792
370
    15
100
AcDbLine
 10
10568.41976034419
 20
-303.3251067772417
 30
0.0
 11
10568.41976034419
 21
-261.3251067772417
 31
0.0
  0
LINE
  5
289
330
1F
100
AcDbEntity
  8
_脚先端.OTHC-500
  6
Continuous
 62
    30
420
 16737792
370
    15
100
AcDbLine
 10
10568.41976034419
 20
-261.3251067772417
 30
0.0
 11
10546.41976034419
 21
-261.3251067772417
 31
0.0
  0
LINE
  5
28A
330
1F
100
AcDbEntity
  8
_キャスター.OTHC-500
  6
Continuous
 62
   161
420
  4236799
370
    15
100
AcDbLine
 10
9741.104061740124
 20
-354.5751067772419
 30
0.0
 11
9751.169760344197
 21
-364.6408053813139
 31
0.0
  0
LINE
  5
28B
330
1F
100
AcDbEntity
  8
_キャスター.OTHC-500
  6
Continuous
 62
   161
420
  4236799
370
    15
100
AcDbLine
 10
9737.419760344195
 20
-340.8251067772418
 30
0.0
 11
9741.104061740124
 21
-354.5751067772419
 31
0.0
  0
LINE
  5
28C
330
1F
100
AcDbEntity
  8
_キャスター.OTHC-500
  6
Continuous
 62
   161
420
  4236799
370
    15
100
AcDbLine
 10
9741.104061740124
 20
-327.0751067772419
 30
0.0
 11
9737.419760344195
 21
-340.8251067772418
 31
0.0
  0
LINE
  5
28D
330
1F
100
AcDbEntity
  8
_キャスター.OTHC-500
  6
Continuous
 62
   161
420
  4236799
370
    15
100
AcDbLine
 10
9751.169760344197
 20
-317.0094081731698
 30
0.0
 11
9741.104061740124
 21
-327.0751067772419
 31
0.0
  0
LINE
  5
28E
330
1F
100
AcDbEntity
  8
_キャスター.OTHC-500
  6
Continuous
 62
   161
420
  4236799
370
    15
100
AcDbLine
 10
9751.169760344197
 20
-364.6408053813139
 30
0.0
 11
9764.919760344197
 21
-368.3251067772418
 31
0.0
  0
LINE
  5
28F
330
1F
100
AcDbEntity
  8
_キャスター.OTHC-500
  6
Continuous
 62
   161
420
  4236799
370
    15
100
AcDbLine
 10
9764.919760344197
 20
-313.3251067772419
 30
0.0
 11
9751.169760344197
 21
-317.0094081731698
 31
0.0
  0
LINE
  5
290
330
1F
100
AcDbEntity
  8
_キャスター.OTHC-500
  6
Continuous
 62
   161
420
  4236799
370
    15
100
AcDbLine
 10
9788.735458948268
 20
-327.0751067772419
 30
0.0
 11
9778.669760344195
 21
-317.0094081731698
 31
0.0
  0
LINE
  5
291
330
1F
100
AcDbEntity
  8
_キャスター.OTHC-500
  6
Continuous
 62
   161
420
  4236799
370
    15
100
AcDbLine
 10
9778.669760344195
 20
-317.0094081731698
 30
0.0
 11
9764.919760344197
 21
-313.3251067772419
 31
0.0
  0
LINE
  5
292
330
1F
100
AcDbEntity
  8
_キャスター.OTHC-500
  6
Continuous
 62
   161
420
  4236799
370
    15
100
AcDbLine
 10
9792.419760344195
 20
-340.8251067772418
 30
0.0
 11
9788.735458948268
 21
-327.0751067772419
 31
0.0
  0
LINE
  5
293
330
1F
100
AcDbEntity
  8
_キャスター.OTHC-500
  6
Continuous
 62
   161
420
  4236799
370
    15
100
AcDbLine
 10
9764.919760344197
 20
-368.3251067772418
 30
0.0
 11
9778.669760344195
 21
-364.6408053813139
 31
0.0
  0
LINE
  5
294
330
1F
100
AcDbEntity
  8
_キャスター.OTHC-500
  6
Continuous
 62
   161
420
  4236799
370
    15
100
AcDbLine
 10
9778.669760344195
 20
-364.6408053813139
 30
0.0
 11
9788.735458948268
 21
-354.5751067772419
 31
0.0
  0
LINE
  5
295
330
1F
100
AcDbEntity
  8
_キャスター.OTHC-500
  6
Continuous
 62
   161
420
  4236799
370
    15
100
AcDbLine
 10
9788.735458948268
 20
-354.5751067772419
 30
0.0
 11
9792.419760344195
 21
-340.8251067772418
 31
0.0
  0
LINE
  5
296
330
1F
100
AcDbEntity
  8
_キャスター.OTHC-500
  6
Continuous
 62
   161
420
  4236799
370
    15
100
AcDbLine
 10
9736.419760344196
 20
-340.8251067772417
 30
0.0
 11
9738.589193667623
 21
-329.9186289548395
 31
0.0
  0
LINE
  5
297
330
1F
100
AcDbEntity
  8
_キャスター.OTHC-500
  6
Continuous
 62
   161
420
  4236799
370
    15
100
AcDbLine
 10
9739.513073200136
 20
-330.3013123872017
 30
0.0
 11
9737.419760344195
 21
-340.8251067772417
 31
0.0
  0
LINE
  5
298
330
1F
100
AcDbEntity
  8
_キャスター.OTHC-500
  6
Continuous
 62
   161
420
  4236799
370
    15
100
AcDbLine
 10
9738.589193667623
 20
-329.9186289548395
 30
0.0
 11
9744.767217080379
 21
-320.6725635134279
 31
0.0
  0
LINE
  5
299
330
1F
100
AcDbEntity
  8
_キャスター.OTHC-500
  6
Continuous
 62
   161
420
  4236799
370
    15
100
AcDbLine
 10
9745.474323861564
 20
-321.3796702946116
 30
0.0
 11
9742.805860342198
 21
-325.3733081751605
 31
0.0
  0
LINE
  5
29A
330
1F
100
AcDbEntity
  8
_キャスター.OTHC-500
  6
Continuous
 62
   161
420
  4236799
370
    15
100
AcDbLine
 10
9740.72600592766
 20
-328.4860302774628
 30
0.0
 11
9739.513073200136
 21
-330.3013123872017
 31
0.0
  0
LINE
  5
29B
330
1F
100
AcDbEntity
  8
_キャスター.OTHC-500
  6
Continuous
 62
   161
420
  4236799
370
    15
100
AcDbLine
 10
9754.395965954156
 20
-315.4184196331813
 30
0.0
 11
9752.580683844424
 21
-316.6313523607008
 31
0.0
  0
LINE
  5
29C
330
1F
100
AcDbEntity
  8
_キャスター.OTHC-500
  6
Continuous
 62
   161
420
  4236799
370
    15
100
AcDbLine
 10
9749.467961742114
 20
-318.7112067752435
 30
0.0
 11
9745.474323861564
 21
-321.3796702946116
 31
0.0
  0
LINE
  5
29D
330
1F
100
AcDbEntity
  8
_キャスター.OTHC-500
  6
Continuous
 62
   161
420
  4236799
370
    15
100
AcDbLine
 10
9744.767217080379
 20
-320.6725635134279
 30
0.0
 11
9754.013282521789
 21
-314.4945401006729
 31
0.0
  0
LINE
  5
29E
330
1F
100
AcDbEntity
  8
_キャスター.OTHC-500
  6
Continuous
 62
   161
420
  4236799
370
    15
100
AcDbLine
 10
9775.826238166601
 20
-314.4945401006729
 30
0.0
 11
9785.072303608012
 21
-320.6725635134279
 31
0.0
  0
LINE
  5
29F
330
1F
100
AcDbEntity
  8
_キャスター.OTHC-500
  6
Continuous
 62
   161
420
  4236799
370
    15
100
AcDbLine
 10
9754.013282521789
 20
-314.4945401006729
 30
0.0
 11
9764.919760344197
 21
-312.3251067772446
 31
0.0
  0
LINE
  5
2A0
330
1F
100
AcDbEntity
  8
_キャスター.OTHC-500
  6
Continuous
 62
   161
420
  4236799
370
    15
100
AcDbLine
 10
9764.919760344197
 20
-312.3251067772446
 30
0.0
 11
9775.826238166601
 21
-314.4945401006729
 31
0.0
  0
LINE
  5
2A1
330
1F
100
AcDbEntity
  8
_キャスター.OTHC-500
  6
Continuous
 62
   161
420
  4236799
370
    15
100
AcDbLine
 10
9793.419760344196
 20
-340.8251067772475
 30
0.0
 11
9792.419760344195
 21
-340.8251067772417
 31
0.0
  0
LINE
  5
2A2
330
1F
100
AcDbEntity
  8
_キャスター.OTHC-500
  6
Continuous
 62
   161
420
  4236799
370
    15
100
AcDbLine
 10
9791.250327020769
 20
-329.9186289548395
 30
0.0
 11
9793.419760344196
 21
-340.8251067772475
 31
0.0
  0
LINE
  5
2A3
330
1F
100
AcDbEntity
  8
_キャスター.OTHC-500
  6
Continuous
 62
   161
420
  4236799
370
    15
100
AcDbLine
 10
9792.419760344195
 20
-340.8251067772417
 30
0.0
 11
9790.326447488256
 21
-330.3013123872017
 31
0.0
  0
LINE
  5
2A4
330
1F
100
AcDbEntity
  8
_キャスター.OTHC-500
  6
Continuous
 62
   161
420
  4236799
370
    15
100
AcDbLine
 10
9785.072303608012
 20
-320.6725635134279
 30
0.0
 11
9791.250327020769
 21
-329.9186289548395
 31
0.0
  0
LINE
  5
2A5
330
1F
100
AcDbEntity
  8
_キャスター.OTHC-500
  6
Continuous
 62
   161
420
  4236799
370
    15
100
AcDbLine
 10
9737.419760344195
 20
-340.8251067772417
 30
0.0
 11
9736.419760344196
 21
-340.8251067772417
 31
0.0
  0
LINE
  5
2A6
330
1F
100
AcDbEntity
  8
_キャスター.OTHC-500
  6
Continuous
 62
   161
420
  4236799
370
    15
100
AcDbLine
 10
9764.919760344197
 20
-313.3251067772418
 30
0.0
 11
9754.395965954156
 21
-315.4184196331813
 31
0.0
  0
LINE
  5
2A7
330
1F
100
AcDbEntity
  8
_キャスター.OTHC-500
  6
Continuous
 62
   161
420
  4236799
370
    15
100
AcDbLine
 10
9784.365196826826
 20
-321.3796702946116
 30
0.0
 11
9780.371558946244
 21
-318.7112067752218
 31
0.0
  0
LINE
  5
2A8
330
1F
100
AcDbEntity
  8
_キャスター.OTHC-500
  6
Continuous
 62
   161
420
  4236799
370
    15
100
AcDbLine
 10
9777.258836843977
 20
-316.6313523607082
 30
0.0
 11
9775.443554734236
 21
-315.4184196331813
 31
0.0
  0
LINE
  5
2A9
330
1F
100
AcDbEntity
  8
_キャスター.OTHC-500
  6
Continuous
 62
   161
420
  4236799
370
    15
100
AcDbLine
 10
9775.443554734236
 20
-315.4184196331813
 30
0.0
 11
9764.919760344197
 21
-313.3251067772418
 31
0.0
  0
LINE
  5
2AA
330
1F
100
AcDbEntity
  8
_キャスター.OTHC-500
  6
Continuous
 62
   161
420
  4236799
370
    15
100
AcDbLine
 10
9790.326447488256
 20
-330.3013123872017
 30
0.0
 11
9789.113514760737
 21
-328.4860302774721
 31
0.0
  0
LINE
  5
2AB
330
1F
100
AcDbEntity
  8
_キャスター.OTHC-500
  6
Continuous
 62
   161
420
  4236799
370
    15
100
AcDbLine
 10
9787.033660346216
 20
-325.3733081751931
 30
0.0
 11
9784.365196826826
 21
-321.3796702946116
 31
0.0
  0
LINE
  5
2AC
330
1F
100
AcDbEntity
  8
_補強リブ.OTHC-500
  6
Continuous
 62
   161
420
  4236799
370
    15
100
AcDbLine
 10
10376.91976034419
 20
-262.3251067772417
 30
0.0
 11
10280.91976034419
 21
25.67489322275799
 31
0.0
  0
LINE
  5
2AD
330
1F
100
AcDbEntity
  8
_キャスター.OTHC-500
  6
Continuous
 62
   161
420
  4236799
370
    15
100
AcDbLine
 10
10521.10406174012
 20
-354.5751067772419
 30
0.0
 11
10531.16976034419
 21
-364.6408053813139
 31
0.0
  0
LINE
  5
2AE
330
1F
100
AcDbEntity
  8
_キャスター.OTHC-500
  6
Continuous
 62
   161
420
  4236799
370
    15
100
AcDbLine
 10
10517.41976034419
 20
-340.8251067772418
 30
0.0
 11
10521.10406174012
 21
-354.5751067772419
 31
0.0
  0
LINE
  5
2AF
330
1F
100
AcDbEntity
  8
_キャスター.OTHC-500
  6
Continuous
 62
   161
420
  4236799
370
    15
100
AcDbLine
 10
10521.10406174012
 20
-327.0751067772419
 30
0.0
 11
10517.41976034419
 21
-340.8251067772418
 31
0.0
  0
LINE
  5
2B0
330
1F
100
AcDbEntity
  8
_キャスター.OTHC-500
  6
Continuous
 62
   161
420
  4236799
370
    15
100
AcDbLine
 10
10531.16976034419
 20
-317.0094081731698
 30
0.0
 11
10521.10406174012
 21
-327.0751067772419
 31
0.0
  0
LINE
  5
2B1
330
1F
100
AcDbEntity
  8
_キャスター.OTHC-500
  6
Continuous
 62
   161
420
  4236799
370
    15
100
AcDbLine
 10
10531.16976034419
 20
-364.6408053813139
 30
0.0
 11
10544.91976034419
 21
-368.3251067772418
 31
0.0
  0
LINE
  5
2B2
330
1F
100
AcDbEntity
  8
_キャスター.OTHC-500
  6
Continuous
 62
   161
420
  4236799
370
    15
100
AcDbLine
 10
10544.91976034419
 20
-313.3251067772419
 30
0.0
 11
10531.16976034419
 21
-317.0094081731698
 31
0.0
  0
LINE
  5
2B3
330
1F
100
AcDbEntity
  8
_キャスター.OTHC-500
  6
Continuous
 62
   161
420
  4236799
370
    15
100
AcDbLine
 10
10568.73545894827
 20
-327.0751067772419
 30
0.0
 11
10558.66976034419
 21
-317.0094081731698
 31
0.0
  0
LINE
  5
2B4
330
1F
100
AcDbEntity
  8
_キャスター.OTHC-500
  6
Continuous
 62
   161
420
  4236799
370
    15
100
AcDbLine
 10
10558.66976034419
 20
-317.0094081731698
 30
0.0
 11
10544.91976034419
 21
-313.3251067772419
 31
0.0
  0
LINE
  5
2B5
330
1F
100
AcDbEntity
  8
_キャスター.OTHC-500
  6
Continuous
 62
   161
420
  4236799
370
    15
100
AcDbLine
 10
10572.41976034419
 20
-340.8251067772418
 30
0.0
 11
10568.73545894827
 21
-327.0751067772419
 31
0.0
  0
LINE
  5
2B6
330
1F
100
AcDbEntity
  8
_キャスター.OTHC-500
  6
Continuous
 62
   161
420
  4236799
370
    15
100
AcDbLine
 10
10544.91976034419
 20
-368.3251067772418
 30
0.0
 11
10558.66976034419
 21
-364.6408053813139
 31
0.0
  0
LINE
  5
2B7
330
1F
100
AcDbEntity
  8
_キャスター.OTHC-500
  6
Continuous
 62
   161
420
  4236799
370
    15
100
AcDbLine
 10
10558.66976034419
 20
-364.6408053813139
 30
0.0
 11
10568.73545894827
 21
-354.5751067772419
 31
0.0
  0
LINE
  5
2B8
330
1F
100
AcDbEntity
  8
_キャスター.OTHC-500
  6
Continuous
 62
   161
420
  4236799
370
    15
100
AcDbLine
 10
10568.73545894827
 20
-354.5751067772419
 30
0.0
 11
10572.41976034419
 21
-340.8251067772418
 31
0.0
  0
LINE
  5
2B9
330
1F
100
AcDbEntity
  8
_キャスター.OTHC-500
  6
Continuous
 62
   161
420
  4236799
370
    15
100
AcDbLine
 10
10516.41976034419
 20
-340.8251067772417
 30
0.0
 11
10518.58919366762
 21
-329.9186289548395
 31
0.0
  0
LINE
  5
2BA
330
1F
100
AcDbEntity
  8
_キャスター.OTHC-500
  6
Continuous
 62
   161
420
  4236799
370
    15
100
AcDbLine
 10
10519.51307320013
 20
-330.3013123872017
 30
0.0
 11
10517.41976034419
 21
-340.8251067772417
 31
0.0
  0
LINE
  5
2BB
330
1F
100
AcDbEntity
  8
_キャスター.OTHC-500
  6
Continuous
 62
   161
420
  4236799
370
    15
100
AcDbLine
 10
10518.58919366762
 20
-329.9186289548395
 30
0.0
 11
10524.76721708037
 21
-320.6725635134279
 31
0.0
  0
LINE
  5
2BC
330
1F
100
AcDbEntity
  8
_キャスター.OTHC-500
  6
Continuous
 62
   161
420
  4236799
370
    15
100
AcDbLine
 10
10525.47432386156
 20
-321.3796702946116
 30
0.0
 11
10522.80586034218
 21
-325.3733081751806
 31
0.0
  0
LINE
  5
2BD
330
1F
100
AcDbEntity
  8
_キャスター.OTHC-500
  6
Continuous
 62
   161
420
  4236799
370
    15
100
AcDbLine
 10
10520.72600592765
 20
-328.486030277473
 30
0.0
 11
10519.51307320013
 21
-330.3013123872017
 31
0.0
  0
LINE
  5
2BE
330
1F
100
AcDbEntity
  8
_キャスター.OTHC-500
  6
Continuous
 62
   161
420
  4236799
370
    15
100
AcDbLine
 10
10534.39596595415
 20
-315.4184196331813
 30
0.0
 11
10532.58068384442
 21
-316.6313523607007
 31
0.0
  0
LINE
  5
2BF
330
1F
100
AcDbEntity
  8
_キャスター.OTHC-500
  6
Continuous
 62
   161
420
  4236799
370
    15
100
AcDbLine
 10
10529.46796174213
 20
-318.7112067752303
 30
0.0
 11
10525.47432386156
 21
-321.3796702946116
 31
0.0
  0
LINE
  5
2C0
330
1F
100
AcDbEntity
  8
_キャスター.OTHC-500
  6
Continuous
 62
   161
420
  4236799
370
    15
100
AcDbLine
 10
10524.76721708037
 20
-320.6725635134279
 30
0.0
 11
10534.01328252179
 21
-314.4945401006729
 31
0.0
  0
LINE
  5
2C1
330
1F
100
AcDbEntity
  8
_キャスター.OTHC-500
  6
Continuous
 62
   161
420
  4236799
370
    15
100
AcDbLine
 10
10555.8262381666
 20
-314.4945401006729
 30
0.0
 11
10565.07230360801
 21
-320.6725635134279
 31
0.0
  0
LINE
  5
2C2
330
1F
100
AcDbEntity
  8
_キャスター.OTHC-500
  6
Continuous
 62
   161
420
  4236799
370
    15
100
AcDbLine
 10
10534.01328252179
 20
-314.4945401006729
 30
0.0
 11
10544.91976034419
 21
-312.3251067772446
 31
0.0
  0
LINE
  5
2C3
330
1F
100
AcDbEntity
  8
_キャスター.OTHC-500
  6
Continuous
 62
   161
420
  4236799
370
    15
100
AcDbLine
 10
10544.91976034419
 20
-312.3251067772446
 30
0.0
 11
10555.8262381666
 21
-314.4945401006729
 31
0.0
  0
LINE
  5
2C4
330
1F
100
AcDbEntity
  8
_キャスター.OTHC-500
  6
Continuous
 62
   161
420
  4236799
370
    15
100
AcDbLine
 10
10573.41976034419
 20
-340.8251067772475
 30
0.0
 11
10572.41976034419
 21
-340.8251067772417
 31
0.0
  0
LINE
  5
2C5
330
1F
100
AcDbEntity
  8
_キャスター.OTHC-500
  6
Continuous
 62
   161
420
  4236799
370
    15
100
AcDbLine
 10
10571.25032702076
 20
-329.9186289548395
 30
0.0
 11
10573.41976034419
 21
-340.8251067772475
 31
0.0
  0
LINE
  5
2C6
330
1F
100
AcDbEntity
  8
_キャスター.OTHC-500
  6
Continuous
 62
   161
420
  4236799
370
    15
100
AcDbLine
 10
10572.41976034419
 20
-340.8251067772417
 30
0.0
 11
10570.32644748825
 21
-330.3013123872017
 31
0.0
  0
LINE
  5
2C7
330
1F
100
AcDbEntity
  8
_キャスター.OTHC-500
  6
Continuous
 62
   161
420
  4236799
370
    15
100
AcDbLine
 10
10565.07230360801
 20
-320.6725635134279
 30
0.0
 11
10571.25032702076
 21
-329.9186289548395
 31
0.0
  0
LINE
  5
2C8
330
1F
100
AcDbEntity
  8
_キャスター.OTHC-500
  6
Continuous
 62
   161
420
  4236799
370
    15
100
AcDbLine
 10
10517.41976034419
 20
-340.8251067772417
 30
0.0
 11
10516.41976034419
 21
-340.8251067772417
 31
0.0
  0
LINE
  5
2C9
330
1F
100
AcDbEntity
  8
_キャスター.OTHC-500
  6
Continuous
 62
   161
420
  4236799
370
    15
100
AcDbLine
 10
10544.91976034419
 20
-313.3251067772418
 30
0.0
 11
10534.39596595415
 21
-315.4184196331813
 31
0.0
  0
LINE
  5
2CA
330
1F
100
AcDbEntity
  8
_キャスター.OTHC-500
  6
Continuous
 62
   161
420
  4236799
370
    15
100
AcDbLine
 10
10564.36519682682
 20
-321.3796702946116
 30
0.0
 11
10560.37155894626
 21
-318.7112067752355
 31
0.0
  0
LINE
  5
2CB
330
1F
100
AcDbEntity
  8
_キャスター.OTHC-500
  6
Continuous
 62
   161
420
  4236799
370
    15
100
AcDbLine
 10
10557.25883684397
 20
-316.631352360702
 30
0.0
 11
10555.44355473423
 21
-315.4184196331813
 31
0.0
  0
LINE
  5
2CC
330
1F
100
AcDbEntity
  8
_キャスター.OTHC-500
  6
Continuous
 62
   161
420
  4236799
370
    15
100
AcDbLine
 10
10555.44355473423
 20
-315.4184196331813
 30
0.0
 11
10544.91976034419
 21
-313.3251067772418
 31
0.0
  0
LINE
  5
2CD
330
1F
100
AcDbEntity
  8
_キャスター.OTHC-500
  6
Continuous
 62
   161
420
  4236799
370
    15
100
AcDbLine
 10
10570.32644748825
 20
-330.3013123872017
 30
0.0
 11
10569.11351476073
 21
-328.4860302774642
 31
0.0
  0
LINE
  5
2CE
330
1F
100
AcDbEntity
  8
_キャスター.OTHC-500
  6
Continuous
 62
   161
420
  4236799
370
    15
100
AcDbLine
 10
10567.0336603462
 20
-325.3733081751727
 30
0.0
 11
10564.36519682682
 21
-321.3796702946116
 31
0.0
  0
LINE
  5
2CF
330
1F
100
AcDbEntity
  8
_キャスター.OTHC-500
  6
Continuous
 62
    30
420
 16737792
370
    15
100
AcDbLine
 10
9780.419760344194
 20
-318.7594081731734
 30
0.0
 11
9780.419760344194
 21
-318.7434139196503
 31
0.0
  0
LINE
  5
2D0
330
1F
100
AcDbEntity
  8
_キャスター.OTHC-500
  6
Continuous
 62
    30
420
 16737792
370
    15
100
AcDbLine
 10
9780.419760344194
 20
-317.5638334925471
 30
0.0
 11
9780.419760344194
 21
-303.3251067772417
 31
0.0
  0
LINE
  5
2D1
330
1F
100
AcDbEntity
  8
_キャスター.OTHC-500
  6
Continuous
 62
    30
420
 16737792
370
    15
100
AcDbLine
 10
9774.419760344196
 20
-315.8706241053415
 30
0.0
 11
9774.419760344196
 21
-315.2147742673452
 31
0.0
  0
LINE
  5
2D2
330
1F
100
AcDbEntity
  8
_キャスター.OTHC-500
  6
Continuous
 62
    30
420
 16737792
370
    15
100
AcDbLine
 10
9774.419760344196
 20
-314.2147742673502
 30
0.0
 11
9774.419760344196
 21
-303.3251067772417
 31
0.0
  0
LINE
  5
2D3
330
1F
100
AcDbEntity
  8
_キャスター.OTHC-500
  6
Continuous
 62
    30
420
 16737792
370
    15
100
AcDbLine
 10
10560.41976034419
 20
-318.7594081731666
 30
0.0
 11
10560.41976034419
 21
-318.7434139196506
 31
0.0
  0
LINE
  5
2D4
330
1F
100
AcDbEntity
  8
_キャスター.OTHC-500
  6
Continuous
 62
    30
420
 16737792
370
    15
100
AcDbLine
 10
10560.41976034419
 20
-317.5638334925493
 30
0.0
 11
10560.41976034419
 21
-303.3251067772417
 31
0.0
  0
LINE
  5
2D5
330
1F
100
AcDbEntity
  8
_キャスター.OTHC-500
  6
Continuous
 62
    30
420
 16737792
370
    15
100
AcDbLine
 10
10554.41976034419
 20
-315.8706241053377
 30
0.0
 11
10554.41976034419
 21
-315.2147742673482
 31
0.0
  0
LINE
  5
2D6
330
1F
100
AcDbEntity
  8
_キャスター.OTHC-500
  6
Continuous
 62
    30
420
 16737792
370
    15
100
AcDbLine
 10
10554.41976034419
 20
-314.214774267351
 30
0.0
 11
10554.41976034419
 21
-303.3251067772417
 31
0.0
  0
LINE
  5
2D7
330
1F
100
AcDbEntity
  8
_補強残.OTHC-500
  6
Continuous
 62
    30
420
 16737792
370
    15
100
AcDbLine
 10
10396.91976034419
 20
-252.3251067772417
 30
0.0
 11
10396.91976034419
 21
-262.3251067772417
 31
0.0
  0
LINE
  5
2D8
330
1F
100
AcDbEntity
  8
_補強残.OTHC-500
  6
Continuous
 62
    30
420
 16737792
370
    15
100
AcDbLine
 10
10376.91976034419
 20
-252.3251067772417
 30
0.0
 11
10396.91976034419
 21
-252.3251067772417
 31
0.0
  0
LINE
  5
2D9
330
1F
100
AcDbEntity
  8
_補強残.OTHC-500
  6
Continuous
 62
    30
420
 16737792
370
    15
100
AcDbLine
 10
10376.91976034419
 20
-262.3251067772417
 30
0.0
 11
10376.91976034419
 21
-252.3251067772417
 31
0.0
  0
LINE
  5
2DA
330
1F
100
AcDbEntity
  8
_補強残.OTHC-500
  6
Continuous
 62
    30
420
 16737792
370
    15
100
AcDbLine
 10
10262.75859510902
 20
1610.51372798759
 30
0.0
 11
10266.41976034419
 21
1601.674893222758
 31
0.0
  0
LINE
  5
2DB
330
1F
100
AcDbEntity
  8
_補強残.OTHC-500
  6
Continuous
 62
    30
420
 16737792
370
    15
100
AcDbLine
 10
10257.06745227076
 20
1612.871076536602
 30
0.0
 11
10262.75859510902
 21
1610.51372798759
 31
0.0
  0
LINE
  5
2DC
330
1F
100
AcDbEntity
  8
_補強残.OTHC-500
  6
Continuous
 62
    30
420
 16737792
370
    15
100
AcDbLine
 10
10245.08092557936
 20
1610.51372798759
 30
0.0
 11
10250.90499840797
 21
1612.92613794145
 31
0.0
  0
LINE
  5
2DD
330
1F
100
AcDbEntity
  8
_補強残.OTHC-500
  6
Continuous
 62
    30
420
 16737792
370
    15
100
AcDbLine
 10
10241.41976034419
 20
1601.674893222758
 30
0.0
 11
10245.08092557936
 21
1610.51372798759
 31
0.0
  0
LINE
  5
2DE
330
1F
100
AcDbEntity
  8
_補強残.OTHC-500
  6
Continuous
 62
    30
420
 16737792
370
    15
100
AcDbLine
 10
10245.08092557936
 20
1592.836058457926
 30
0.0
 11
10241.41976034419
 21
1601.674893222758
 31
0.0
  0
LINE
  5
2DF
330
1F
100
AcDbEntity
  8
_補強残.OTHC-500
  6
Continuous
 62
    30
420
 16737792
370
    15
100
AcDbLine
 10
10253.91976034419
 20
1589.174893222758
 30
0.0
 11
10245.08092557936
 21
1592.836058457926
 31
0.0
  0
DIMENSION
  5
2ED
330
1F
100
AcDbEntity
  8
_2D寸法.2D
  6
Continuous
 62
     5
370
     5
100
AcDbDimension
280
     0
  2
*D17
 10
10567.41976034419
 20
-718.3251067772417
 30
0.0
 11
10189.01975973308
 21
-655.3251060619859
 31
0.0
 70
   160
  1
<>
 71
     5
 42
-1.0
 73
     0
 74
     0
 75
     0
  3
GENERATED_STYLE__1
100
AcDbAlignedDimension
 13
9767.419760344196
 23
-262.3251067772417
 33
0.0
 14
10567.41976034419
 24
-262.3251067772417
 34
0.0
100
AcDbRotatedDimension
  0
MTEXT
  5
2EE
102
{ACAD_XDICTIONARY
360
430
102
}
102
{ACAD_REACTORS
330
2EF
102
}
330
1F
100
AcDbEntity
  8
_2Dテキスト.2D
  6
Continuous
 62
     7
370
     5
100
AcDbMText
 10
10587.15404549226
 20
-34.08012451508073
 30
0.0
 40
75.0
 41
0.0
 46
0.0
 71
     4
 72
     1
  1
\A1;補強桟
  7
GENERATED_STYLE_1
 73
     1
 44
1.0
  0
LEADER
  5
2EF
330
1F
100
AcDbEntity
  8
_2Dテキスト.2D
  6
Continuous
 62
     5
370
     5
100
AcDbLeader
  3
GENERATED_STYLE__5
 73
     0
 40
89.08629441624364
 41
284.3908629441624
 76
     3
 10
10396.91976034419
 20
-252.3251067772417
 30
0.0
 10
10455.15404549226
 20
-34.08012451508073
 30
0.0
 10
10587.06404549226
 20
-34.08012451508073
 30
0.0
340
2EE
  0
LWPOLYLINE
  5
2F0
330
1F
100
AcDbEntity
  8
#2D_OTHC-500.2D
  6
_点線(0.4-0.4)
 62
     7
370
    15
100
AcDbPolyline
 90
        4
 70
   129
 43
0.0
 10
13078.38158744847
 20
1611.674895981067
 10
13105.38156582842
 20
1611.67488499465
 10
13105.38188321406
 20
2391.674904548464
 10
13078.38190483411
 20
2391.674915534881
  0
LWPOLYLINE
  5
2F1
330
1F
100
AcDbEntity
  8
#2D_OTHC-500.2D
  6
_点線(0.4-0.4)
 62
     7
370
    15
100
AcDbPolyline
 90
        4
 70
   129
 43
0.0
 10
13059.88159385458
 20
1596.952500742116
 10
13083.2642706279
 20
1610.452473313674
 10
12693.26474093902
 20
2285.952582378437
 10
12669.88206416571
 20
2272.452609806878
  0
LWPOLYLINE
  5
2F2
330
1F
100
AcDbEntity
  8
#2D_OTHC-500.2D
  6
_点線(0.4-0.4)
 62
     7
370
    15
100
AcDbPolyline
 90
        4
 70
   129
 43
0.0
 10
13054.88159837659
 20
1588.2922441604
 10
13054.88161240893
 20
1615.29222254035
 10
12274.88159285515
 20
1615.292627919236
 10
12274.88157882282
 20
1588.292649539285
  0
LWPOLYLINE
  5
2F3
330
1F
100
AcDbEntity
  8
#2D_OTHC-500.2D
  6
_点線(0.4-0.4)
 62
     7
370
    15
100
AcDbPolyline
 90
        4
 70
   129
 43
0.0
 10
13056.22134134546
 20
1593.292244660232
 10
13069.72134412644
 20
1616.674903992128
 10
12394.22173892523
 20
2006.675306398406
 10
12380.72173614425
 20
1983.29264706651
  0
LWPOLYLINE
  5
2F4
330
1F
100
AcDbEntity
  8
#2D_OTHC-500.2D
  6
_点線(0.4-0.4)
 62
     7
370
    15
100
AcDbPolyline
 90
        4
 70
   129
 43
0.0
 10
13059.88159888516
 20
1606.6319607615
 10
13083.26426162614
 20
1593.131963885224
 10
12693.26402980038
 20
917.6322601992033
 10
12669.8813670594
 20
931.1322570754789
  0
LWPOLYLINE
  5
2F5
330
1F
100
AcDbEntity
  8
#2D_OTHC-500.2D
  6
_点線(0.4-0.4)
 62
     7
370
    15
100
AcDbPolyline
 90
        4
 70
   129
 43
0.0
 10
13056.22135018063
 20
1610.29222064797
 10
13069.72132865689
 20
1586.909547283738
 10
12394.22131807677
 20
1196.909847014243
 10
12380.7213396005
 20
1220.292520378474
  0
LWPOLYLINE
  5
2F6
330
1F
100
AcDbEntity
  8
#2D_OTHC-500.2D
  6
_点線(0.4-0.4)
 62
     7
370
    15
100
AcDbPolyline
 90
        4
 70
   129
 43
0.0
 10
13051.38161633973
 20
1601.674906568485
 10
13078.38159471969
 20
1601.67489769311
 10
13078.38133831976
 20
821.6748781392741
 10
13051.38135993981
 20
821.6748870146487
  0
LINE
  5
2F7
330
1F
100
AcDbEntity
  8
_パネル本体.OTHC-500
  6
Continuous
 62
   104
420
   171553
370
    15
100
AcDbLine
 10
13105.38157013275
 20
-218.3251358345342
 30
0.0
 11
13078.38159471969
 21
-218.3251358345342
 31
0.0
  0
LINE
  5
2F8
330
1F
100
AcDbEntity
  8
_パネル本体.OTHC-500
  6
Continuous
 62
   104
420
   171553
370
    15
100
AcDbLine
 10
13078.38159471969
 20
-218.3251358345342
 30
0.0
 11
13078.38159471969
 21
1601.67489769311
 31
0.0
  0
LINE
  5
2F9
330
1F
100
AcDbEntity
  8
_パネル本体.OTHC-500
  6
Continuous
 62
   104
420
   171553
370
    15
100
AcDbLine
 10
13105.38157013275
 20
1601.67489769311
 30
0.0
 11
13105.38157013275
 21
-218.3251358345342
 31
0.0
  0
LINE
  5
2FA
330
1F
100
AcDbEntity
  8
_パネル本体.OTHC-500
  6
Continuous
 62
   104
420
   171553
370
    15
100
AcDbLine
 10
13078.38159471969
 20
1601.67489769311
 30
0.0
 11
13105.38157013275
 21
1601.67489769311
 31
0.0
  0
LINE
  5
2FB
330
1F
100
AcDbEntity
  8
_パネル上部.OTHC-500
  6
Continuous
 62
   161
420
  4236799
370
    15
100
AcDbLine
 10
12873.91453898333
 20
2364.756273757054
 30
0.0
 11
12899.99452253243
 21
2371.744398265315
 31
0.0
  0
LINE
  5
2FC
330
1F
100
AcDbEntity
  8
_パネル上部.OTHC-500
  6
Continuous
 62
   161
420
  4236799
370
    15
100
AcDbLine
 10
13101.87338715227
 20
1618.32223604516
 30
0.0
 11
13075.79340360317
 21
1611.334154005248
 31
0.0
  0
LINE
  5
2FD
330
1F
100
AcDbEntity
  8
_パネル上部.OTHC-500
  6
Continuous
 62
   161
420
  4236799
370
    15
100
AcDbLine
 10
13075.79340360317
 20
1611.334154005248
 30
0.0
 11
12873.91453898333
 21
2364.756273757054
 31
0.0
  0
LINE
  5
2FE
330
1F
100
AcDbEntity
  8
_パネル上部.OTHC-500
  6
Continuous
 62
   161
420
  4236799
370
    15
100
AcDbLine
 10
13101.87338715227
 20
1618.32223604516
 30
0.0
 11
12899.99452253243
 21
2371.744398265315
 31
0.0
  0
LINE
  5
2FF
330
1F
100
AcDbEntity
  8
_支柱.OTHC-500
  6
Continuous
 62
    30
420
 16737792
370
    15
100
AcDbLine
 10
13082.38160366039
 20
-262.3251067772421
 30
0.0
 11
13082.38160366039
 21
-218.3251358345342
 31
0.0
  0
LINE
  5
300
330
1F
100
AcDbEntity
  8
_支柱.OTHC-500
  6
Continuous
 62
    30
420
 16737792
370
    15
100
AcDbLine
 10
13101.38160366039
 20
-262.3251067772421
 30
0.0
 11
13101.38160366039
 21
-218.3251358345342
 31
0.0
  0
LINE
  5
301
330
1F
100
AcDbEntity
  8
_脚.OTHC-500
  6
Continuous
 62
    30
420
 16737792
370
    15
100
AcDbLine
 10
13370.88159024933
 20
-302.3251112475947
 30
0.0
 11
12612.88159471969
 21
-302.3251112475947
 31
0.0
  0
LINE
  5
302
330
1F
100
AcDbEntity
  8
_脚.OTHC-500
  6
Continuous
 62
    30
420
 16737792
370
    15
100
AcDbLine
 10
13370.88159024933
 20
-262.3251067772421
 30
0.0
 11
12612.88159471969
 21
-262.3251067772421
 31
0.0
  0
LINE
  5
303
330
1F
100
AcDbEntity
  8
_脚先端.OTHC-500
  6
Continuous
 62
    30
420
 16737792
370
    15
100
AcDbLine
 10
12612.88159471969
 20
-303.325113482771
 30
0.0
 11
12590.88158801416
 21
-303.325113482771
 31
0.0
  0
LINE
  5
304
330
1F
100
AcDbEntity
  8
_脚先端.OTHC-500
  6
Continuous
 62
    30
420
 16737792
370
    15
100
AcDbLine
 10
12590.88158801416
 20
-303.325113482771
 30
0.0
 11
12590.88158801416
 21
-261.3251045420657
 31
0.0
  0
LINE
  5
305
330
1F
100
AcDbEntity
  8
_脚先端.OTHC-500
  6
Continuous
 62
    30
420
 16737792
370
    15
100
AcDbLine
 10
12612.88159471969
 20
-303.325113482771
 30
0.0
 11
12612.88159471969
 21
-261.3251045420657
 31
0.0
  0
LINE
  5
306
330
1F
100
AcDbEntity
  8
_脚先端.OTHC-500
  6
Continuous
 62
    30
420
 16737792
370
    15
100
AcDbLine
 10
12612.88159471969
 20
-261.3251045420657
 30
0.0
 11
12590.88158801416
 21
-261.3251045420657
 31
0.0
  0
LINE
  5
307
330
1F
100
AcDbEntity
  8
_脚先端.OTHC-500
  6
Continuous
 62
    30
420
 16737792
370
    15
100
AcDbLine
 10
13392.88159695486
 20
-303.325113482771
 30
0.0
 11
13370.88159024933
 21
-303.325113482771
 31
0.0
  0
LINE
  5
308
330
1F
100
AcDbEntity
  8
_脚先端.OTHC-500
  6
Continuous
 62
    30
420
 16737792
370
    15
100
AcDbLine
 10
13370.88159024933
 20
-303.325113482771
 30
0.0
 11
13370.88159024933
 21
-261.3251045420657
 31
0.0
  0
LINE
  5
309
330
1F
100
AcDbEntity
  8
_脚先端.OTHC-500
  6
Continuous
 62
    30
420
 16737792
370
    15
100
AcDbLine
 10
13392.88159695486
 20
-303.325113482771
 30
0.0
 11
13392.88159695486
 21
-261.3251045420657
 31
0.0
  0
LINE
  5
30A
330
1F
100
AcDbEntity
  8
_脚先端.OTHC-500
  6
Continuous
 62
    30
420
 16737792
370
    15
100
AcDbLine
 10
13392.88159695486
 20
-261.3251045420657
 30
0.0
 11
13370.88159024933
 21
-261.3251045420657
 31
0.0
  0
LINE
  5
30B
330
1F
100
AcDbEntity
  8
_キャスター.OTHC-500
  6
Continuous
 62
   161
420
  4236799
370
    15
100
AcDbLine
 10
12565.56586488992
 20
-354.5751112475947
 30
0.0
 11
12575.63158577898
 21
-364.6408321366584
 31
0.0
  0
LINE
  5
30C
330
1F
100
AcDbEntity
  8
_キャスター.OTHC-500
  6
Continuous
 62
   161
420
  4236799
370
    15
100
AcDbLine
 10
12561.8815656624
 20
-340.8251335993577
 30
0.0
 11
12565.56586488992
 21
-354.5751112475947
 31
0.0
  0
LINE
  5
30D
330
1F
100
AcDbEntity
  8
_キャスター.OTHC-500
  6
Continuous
 62
   161
420
  4236799
370
    15
100
AcDbLine
 10
12565.56586488992
 20
-327.075113482771
 30
0.0
 11
12561.8815656624
 21
-340.8251335993577
 31
0.0
  0
LINE
  5
30E
330
1F
100
AcDbEntity
  8
_キャスター.OTHC-500
  6
Continuous
 62
   161
420
  4236799
370
    15
100
AcDbLine
 10
12575.63158577898
 20
-317.0094350620571
 30
0.0
 11
12565.56586488992
 21
-327.075113482771
 31
0.0
  0
LINE
  5
30F
330
1F
100
AcDbEntity
  8
_キャスター.OTHC-500
  6
Continuous
 62
   161
420
  4236799
370
    15
100
AcDbLine
 10
12575.63158577898
 20
-364.6408321366584
 30
0.0
 11
12589.38156342722
 21
-368.3251313641815
 31
0.0
  0
LINE
  5
310
330
1F
100
AcDbEntity
  8
_キャスター.OTHC-500
  6
Continuous
 62
   161
420
  4236799
370
    15
100
AcDbLine
 10
12589.38156342722
 20
-313.3251358345342
 30
0.0
 11
12575.63158577898
 21
-317.0094350620571
 31
0.0
  0
LINE
  5
311
330
1F
100
AcDbEntity
  8
_キャスター.OTHC-500
  6
Continuous
 62
   161
420
  4236799
370
    15
100
AcDbLine
 10
12613.19726196452
 20
-327.075113482771
 30
0.0
 11
12603.1315835438
 21
-317.0094350620571
 31
0.0
  0
LINE
  5
312
330
1F
100
AcDbEntity
  8
_キャスター.OTHC-500
  6
Continuous
 62
   161
420
  4236799
370
    15
100
AcDbLine
 10
12603.1315835438
 20
-317.0094350620571
 30
0.0
 11
12589.38156342722
 21
-313.3251358345342
 31
0.0
  0
LINE
  5
313
330
1F
100
AcDbEntity
  8
_キャスター.OTHC-500
  6
Continuous
 62
   161
420
  4236799
370
    15
100
AcDbLine
 10
12616.88160366039
 20
-340.8251335993577
 30
0.0
 11
12613.19726196452
 21
-327.075113482771
 31
0.0
  0
LINE
  5
314
330
1F
100
AcDbEntity
  8
_キャスター.OTHC-500
  6
Continuous
 62
   161
420
  4236799
370
    15
100
AcDbLine
 10
12589.38156342722
 20
-368.3251313641815
 30
0.0
 11
12603.1315835438
 21
-364.6408321366584
 31
0.0
  0
LINE
  5
315
330
1F
100
AcDbEntity
  8
_キャスター.OTHC-500
  6
Continuous
 62
   161
420
  4236799
370
    15
100
AcDbLine
 10
12603.1315835438
 20
-364.6408321366584
 30
0.0
 11
12613.19726196452
 21
-354.5751112475947
 31
0.0
  0
LINE
  5
316
330
1F
100
AcDbEntity
  8
_キャスター.OTHC-500
  6
Continuous
 62
   161
420
  4236799
370
    15
100
AcDbLine
 10
12613.19726196452
 20
-354.5751112475947
 30
0.0
 11
12616.88160366039
 21
-340.8251335993577
 31
0.0
  0
LINE
  5
317
330
1F
100
AcDbEntity
  8
_キャスター.OTHC-500
  6
Continuous
 62
   161
420
  4236799
370
    15
100
AcDbLine
 10
12560.88156342722
 20
-340.8251335993577
 30
0.0
 11
12563.05101661369
 21
-329.9186243189057
 31
0.0
  0
LINE
  5
318
330
1F
100
AcDbEntity
  8
_キャスター.OTHC-500
  6
Continuous
 62
   161
420
  4236799
370
    15
100
AcDbLine
 10
12563.97491556584
 20
-330.3013066198856
 30
0.0
 11
12561.8815656624
 21
-340.8251335993577
 31
0.0
  0
LINE
  5
319
330
1F
100
AcDbEntity
  8
_キャスター.OTHC-500
  6
Continuous
 62
   161
420
  4236799
370
    15
100
AcDbLine
 10
12563.05101661369
 20
-329.9186243189057
 30
0.0
 11
12569.22905734754
 21
-320.6725850513284
 31
0.0
  0
LINE
  5
31A
330
1F
100
AcDbEntity
  8
_キャスター.OTHC-500
  6
Continuous
 62
   161
420
  4236799
370
    15
100
AcDbLine
 10
12569.93615537343
 20
-321.3796830772206
 30
0.0
 11
12567.2676990756
 21
-325.3733217654403
 31
0.0
  0
LINE
  5
31B
330
1F
100
AcDbEntity
  8
_キャスター.OTHC-500
  6
Continuous
 62
   161
420
  4236799
370
    15
100
AcDbLine
 10
12565.18781163908
 20
-328.4860394716129
 30
0.0
 11
12563.97491556584
 21
-330.3013066198856
 31
0.0
  0
LINE
  5
31C
330
1F
100
AcDbEntity
  8
_キャスター.OTHC-500
  6
Continuous
 62
   161
420
  4236799
370
    15
100
AcDbLine
 10
12578.85777891609
 20
-315.4184432696245
 30
0.0
 11
12577.04251176782
 21
-316.6313818112168
 31
0.0
  0
LINE
  5
31D
330
1F
100
AcDbEntity
  8
_キャスター.OTHC-500
  6
Continuous
 62
   161
420
  4236799
370
    15
100
AcDbLine
 10
12573.92979406165
 20
-318.7112267793879
 30
0.0
 11
12569.93615537343
 21
-321.3796830772206
 31
0.0
  0
LINE
  5
31E
330
1F
100
AcDbEntity
  8
_キャスター.OTHC-500
  6
Continuous
 62
   161
420
  4236799
370
    15
100
AcDbLine
 10
12569.22905734754
 20
-320.6725850513284
 30
0.0
 11
12578.47509661512
 21
-314.4945443174753
 31
0.0
  0
LINE
  5
31F
330
1F
100
AcDbEntity
  8
_キャスター.OTHC-500
  6
Continuous
 62
   161
420
  4236799
370
    15
100
AcDbLine
 10
12600.28807270767
 20
-314.4945443174753
 30
0.0
 11
12609.53411197525
 21
-320.6725850513284
 31
0.0
  0
LINE
  5
320
330
1F
100
AcDbEntity
  8
_キャスター.OTHC-500
  6
Continuous
 62
   161
420
  4236799
370
    15
100
AcDbLine
 10
12578.47509661512
 20
-314.4945443174753
 30
0.0
 11
12589.38156342722
 21
-312.3251335993578
 31
0.0
  0
LINE
  5
321
330
1F
100
AcDbEntity
  8
_キャスター.OTHC-500
  6
Continuous
 62
   161
420
  4236799
370
    15
100
AcDbLine
 10
12589.38156342722
 20
-312.3251335993578
 30
0.0
 11
12600.28807270767
 21
-314.4945443174753
 31
0.0
  0
LINE
  5
322
330
1F
100
AcDbEntity
  8
_キャスター.OTHC-500
  6
Continuous
 62
   161
420
  4236799
370
    15
100
AcDbLine
 10
12617.88156342722
 20
-340.8251335993577
 30
0.0
 11
12616.88160366039
 21
-340.8251335993577
 31
0.0
  0
LINE
  5
323
330
1F
100
AcDbEntity
  8
_キャスター.OTHC-500
  6
Continuous
 62
   161
420
  4236799
370
    15
100
AcDbLine
 10
12615.7121527091
 20
-329.9186243189057
 30
0.0
 11
12617.88156342722
 21
-340.8251335993577
 31
0.0
  0
LINE
  5
324
330
1F
100
AcDbEntity
  8
_キャスター.OTHC-500
  6
Continuous
 62
   161
420
  4236799
370
    15
100
AcDbLine
 10
12616.88160366039
 20
-340.8251335993577
 30
0.0
 11
12614.78825375695
 21
-330.3013066198856
 31
0.0
  0
LINE
  5
325
330
1F
100
AcDbEntity
  8
_キャスター.OTHC-500
  6
Continuous
 62
   161
420
  4236799
370
    15
100
AcDbLine
 10
12609.53411197525
 20
-320.6725850513284
 30
0.0
 11
12615.7121527091
 21
-329.9186243189057
 31
0.0
  0
LINE
  5
326
330
1F
100
AcDbEntity
  8
_キャスター.OTHC-500
  6
Continuous
 62
   161
420
  4236799
370
    15
100
AcDbLine
 10
12561.8815656624
 20
-340.8251335993577
 30
0.0
 11
12560.88156342722
 21
-340.8251335993577
 31
0.0
  0
LINE
  5
327
330
1F
100
AcDbEntity
  8
_キャスター.OTHC-500
  6
Continuous
 62
   161
420
  4236799
370
    15
100
AcDbLine
 10
12589.38156342722
 20
-313.3251358345342
 30
0.0
 11
12578.85777891609
 21
-315.4184432696245
 31
0.0
  0
LINE
  5
328
330
1F
100
AcDbEntity
  8
_キャスター.OTHC-500
  6
Continuous
 62
   161
420
  4236799
370
    15
100
AcDbLine
 10
12608.82701394935
 20
-321.3796830772206
 30
0.0
 11
12604.83337526113
 21
-318.7112267793879
 31
0.0
  0
LINE
  5
329
330
1F
100
AcDbEntity
  8
_キャスター.OTHC-500
  6
Continuous
 62
   161
420
  4236799
370
    15
100
AcDbLine
 10
12601.72065755496
 20
-316.6313818112168
 30
0.0
 11
12599.90539040669
 21
-315.4184432696245
 31
0.0
  0
LINE
  5
32A
330
1F
100
AcDbEntity
  8
_キャスター.OTHC-500
  6
Continuous
 62
   161
420
  4236799
370
    15
100
AcDbLine
 10
12599.90539040669
 20
-315.4184432696245
 30
0.0
 11
12589.38156342722
 21
-313.3251358345342
 31
0.0
  0
LINE
  5
32B
330
1F
100
AcDbEntity
  8
_キャスター.OTHC-500
  6
Continuous
 62
   161
420
  4236799
370
    15
100
AcDbLine
 10
12614.78825375695
 20
-330.3013066198856
 30
0.0
 11
12613.57535768371
 21
-328.4860394716129
 31
0.0
  0
LINE
  5
32C
330
1F
100
AcDbEntity
  8
_キャスター.OTHC-500
  6
Continuous
 62
   161
420
  4236799
370
    15
100
AcDbLine
 10
12611.49547024719
 20
-325.3733217654403
 30
0.0
 11
12608.82701394935
 21
-321.3796830772206
 31
0.0
  0
LINE
  5
32D
330
1F
100
AcDbEntity
  8
_補強リブ.OTHC-500
  6
Continuous
 62
   161
420
  4236799
370
    15
100
AcDbLine
 10
13201.38157236792
 20
-262.3251067772421
 30
0.0
 11
13105.38157013275
 21
25.67489992828689
 31
0.0
  0
LINE
  5
32E
330
1F
100
AcDbEntity
  8
_キャスター.OTHC-500
  6
Continuous
 62
   161
420
  4236799
370
    15
100
AcDbLine
 10
13345.56586712509
 20
-354.5751112475947
 30
0.0
 11
13355.63158801416
 21
-364.6408321366584
 31
0.0
  0
LINE
  5
32F
330
1F
100
AcDbEntity
  8
_キャスター.OTHC-500
  6
Continuous
 62
   161
420
  4236799
370
    15
100
AcDbLine
 10
13341.88156789757
 20
-340.8251335993577
 30
0.0
 11
13345.56586712509
 21
-354.5751112475947
 31
0.0
  0
LINE
  5
330
330
1F
100
AcDbEntity
  8
_キャスター.OTHC-500
  6
Continuous
 62
   161
420
  4236799
370
    15
100
AcDbLine
 10
13345.56586712509
 20
-327.075113482771
 30
0.0
 11
13341.88156789757
 21
-340.8251335993577
 31
0.0
  0
LINE
  5
331
330
1F
100
AcDbEntity
  8
_キャスター.OTHC-500
  6
Continuous
 62
   161
420
  4236799
370
    15
100
AcDbLine
 10
13355.63158801416
 20
-317.0094350620571
 30
0.0
 11
13345.56586712509
 21
-327.075113482771
 31
0.0
  0
LINE
  5
332
330
1F
100
AcDbEntity
  8
_キャスター.OTHC-500
  6
Continuous
 62
   161
420
  4236799
370
    15
100
AcDbLine
 10
13355.63158801416
 20
-364.6408321366584
 30
0.0
 11
13369.38156566239
 21
-368.3251313641815
 31
0.0
  0
LINE
  5
333
330
1F
100
AcDbEntity
  8
_キャスター.OTHC-500
  6
Continuous
 62
   161
420
  4236799
370
    15
100
AcDbLine
 10
13369.38156566239
 20
-313.3251358345342
 30
0.0
 11
13355.63158801416
 21
-317.0094350620571
 31
0.0
  0
LINE
  5
334
330
1F
100
AcDbEntity
  8
_キャスター.OTHC-500
  6
Continuous
 62
   161
420
  4236799
370
    15
100
AcDbLine
 10
13393.1972641997
 20
-327.075113482771
 30
0.0
 11
13383.13158577898
 21
-317.0094350620571
 31
0.0
  0
LINE
  5
335
330
1F
100
AcDbEntity
  8
_キャスター.OTHC-500
  6
Continuous
 62
   161
420
  4236799
370
    15
100
AcDbLine
 10
13383.13158577898
 20
-317.0094350620571
 30
0.0
 11
13369.38156566239
 21
-313.3251358345342
 31
0.0
  0
LINE
  5
336
330
1F
100
AcDbEntity
  8
_キャスター.OTHC-500
  6
Continuous
 62
   161
420
  4236799
370
    15
100
AcDbLine
 10
13396.88156342722
 20
-340.8251335993577
 30
0.0
 11
13393.1972641997
 21
-327.075113482771
 31
0.0
  0
LINE
  5
337
330
1F
100
AcDbEntity
  8
_キャスター.OTHC-500
  6
Continuous
 62
   161
420
  4236799
370
    15
100
AcDbLine
 10
13369.38156566239
 20
-368.3251313641815
 30
0.0
 11
13383.13158577898
 21
-364.6408321366584
 31
0.0
  0
LINE
  5
338
330
1F
100
AcDbEntity
  8
_キャスター.OTHC-500
  6
Continuous
 62
   161
420
  4236799
370
    15
100
AcDbLine
 10
13383.13158577898
 20
-364.6408321366584
 30
0.0
 11
13393.1972641997
 21
-354.5751112475947
 31
0.0
  0
LINE
  5
339
330
1F
100
AcDbEntity
  8
_キャスター.OTHC-500
  6
Continuous
 62
   161
420
  4236799
370
    15
100
AcDbLine
 10
13393.1972641997
 20
-354.5751112475947
 30
0.0
 11
13396.88156342722
 21
-340.8251335993577
 31
0.0
  0
LINE
  5
33A
330
1F
100
AcDbEntity
  8
_キャスター.OTHC-500
  6
Continuous
 62
   161
420
  4236799
370
    15
100
AcDbLine
 10
13340.8815656624
 20
-340.8251335993577
 30
0.0
 11
13343.05101884886
 21
-329.9186243189057
 31
0.0
  0
LINE
  5
33B
330
1F
100
AcDbEntity
  8
_キャスター.OTHC-500
  6
Continuous
 62
   161
420
  4236799
370
    15
100
AcDbLine
 10
13343.97487533266
 20
-330.3013066198856
 30
0.0
 11
13341.88156789757
 21
-340.8251335993577
 31
0.0
  0
LINE
  5
33C
330
1F
100
AcDbEntity
  8
_キャスター.OTHC-500
  6
Continuous
 62
   161
420
  4236799
370
    15
100
AcDbLine
 10
13343.05101884886
 20
-329.9186243189057
 30
0.0
 11
13349.22905958271
 21
-320.6725850513284
 31
0.0
  0
LINE
  5
33D
330
1F
100
AcDbEntity
  8
_キャスター.OTHC-500
  6
Continuous
 62
   161
420
  4236799
370
    15
100
AcDbLine
 10
13349.93615760861
 20
-321.3796830772206
 30
0.0
 11
13347.26770131077
 21
-325.3733217654403
 31
0.0
  0
LINE
  5
33E
330
1F
100
AcDbEntity
  8
_キャスター.OTHC-500
  6
Continuous
 62
   161
420
  4236799
370
    15
100
AcDbLine
 10
13345.18781387425
 20
-328.4860394716129
 30
0.0
 11
13343.97487533266
 21
-330.3013066198856
 31
0.0
  0
LINE
  5
33F
330
1F
100
AcDbEntity
  8
_キャスター.OTHC-500
  6
Continuous
 62
   161
420
  4236799
370
    15
100
AcDbLine
 10
13358.85778115127
 20
-315.4184432696245
 30
0.0
 11
13357.042514003
 21
-316.6313818112168
 31
0.0
  0
LINE
  5
340
330
1F
100
AcDbEntity
  8
_キャスター.OTHC-500
  6
Continuous
 62
   161
420
  4236799
370
    15
100
AcDbLine
 10
13353.92979629683
 20
-318.7112267793879
 30
0.0
 11
13349.93615760861
 21
-321.3796830772206
 31
0.0
  0
LINE
  5
341
330
1F
100
AcDbEntity
  8
_キャスター.OTHC-500
  6
Continuous
 62
   161
420
  4236799
370
    15
100
AcDbLine
 10
13349.22905958271
 20
-320.6725850513284
 30
0.0
 11
13358.47509885029
 21
-314.4945443174753
 31
0.0
  0
LINE
  5
342
330
1F
100
AcDbEntity
  8
_キャスター.OTHC-500
  6
Continuous
 62
   161
420
  4236799
370
    15
100
AcDbLine
 10
13380.28807494284
 20
-314.4945443174753
 30
0.0
 11
13389.53411421042
 21
-320.6725850513284
 31
0.0
  0
LINE
  5
343
330
1F
100
AcDbEntity
  8
_キャスター.OTHC-500
  6
Continuous
 62
   161
420
  4236799
370
    15
100
AcDbLine
 10
13358.47509885029
 20
-314.4945443174753
 30
0.0
 11
13369.38156566239
 21
-312.3251335993578
 31
0.0
  0
LINE
  5
344
330
1F
100
AcDbEntity
  8
_キャスター.OTHC-500
  6
Continuous
 62
   161
420
  4236799
370
    15
100
AcDbLine
 10
13369.38156566239
 20
-312.3251335993578
 30
0.0
 11
13380.28807494284
 21
-314.4945443174753
 31
0.0
  0
LINE
  5
345
330
1F
100
AcDbEntity
  8
_キャスター.OTHC-500
  6
Continuous
 62
   161
420
  4236799
370
    15
100
AcDbLine
 10
13397.88156566239
 20
-340.8251335993577
 30
0.0
 11
13396.88156342722
 21
-340.8251335993577
 31
0.0
  0
LINE
  5
346
330
1F
100
AcDbEntity
  8
_キャスター.OTHC-500
  6
Continuous
 62
   161
420
  4236799
370
    15
100
AcDbLine
 10
13395.71215494428
 20
-329.9186243189057
 30
0.0
 11
13397.88156566239
 21
-340.8251335993577
 31
0.0
  0
LINE
  5
347
330
1F
100
AcDbEntity
  8
_キャスター.OTHC-500
  6
Continuous
 62
   161
420
  4236799
370
    15
100
AcDbLine
 10
13396.88156342722
 20
-340.8251335993577
 30
0.0
 11
13394.78825599213
 21
-330.3013066198856
 31
0.0
  0
LINE
  5
348
330
1F
100
AcDbEntity
  8
_キャスター.OTHC-500
  6
Continuous
 62
   161
420
  4236799
370
    15
100
AcDbLine
 10
13389.53411421042
 20
-320.6725850513284
 30
0.0
 11
13395.71215494428
 21
-329.9186243189057
 31
0.0
  0
LINE
  5
349
330
1F
100
AcDbEntity
  8
_キャスター.OTHC-500
  6
Continuous
 62
   161
420
  4236799
370
    15
100
AcDbLine
 10
13341.88156789757
 20
-340.8251335993577
 30
0.0
 11
13340.8815656624
 21
-340.8251335993577
 31
0.0
  0
LINE
  5
34A
330
1F
100
AcDbEntity
  8
_キャスター.OTHC-500
  6
Continuous
 62
   161
420
  4236799
370
    15
100
AcDbLine
 10
13369.38156566239
 20
-313.3251358345342
 30
0.0
 11
13358.85778115127
 21
-315.4184432696245
 31
0.0
  0
LINE
  5
34B
330
1F
100
AcDbEntity
  8
_キャスター.OTHC-500
  6
Continuous
 62
   161
420
  4236799
370
    15
100
AcDbLine
 10
13388.82701618453
 20
-321.3796830772206
 30
0.0
 11
13384.83337749631
 21
-318.7112267793879
 31
0.0
  0
LINE
  5
34C
330
1F
100
AcDbEntity
  8
_キャスター.OTHC-500
  6
Continuous
 62
   161
420
  4236799
370
    15
100
AcDbLine
 10
13381.72065979014
 20
-316.6313818112168
 30
0.0
 11
13379.90539264187
 21
-315.4184432696245
 31
0.0
  0
LINE
  5
34D
330
1F
100
AcDbEntity
  8
_キャスター.OTHC-500
  6
Continuous
 62
   161
420
  4236799
370
    15
100
AcDbLine
 10
13379.90539264187
 20
-315.4184432696245
 30
0.0
 11
13369.38156566239
 21
-313.3251358345342
 31
0.0
  0
LINE
  5
34E
330
1F
100
AcDbEntity
  8
_キャスター.OTHC-500
  6
Continuous
 62
   161
420
  4236799
370
    15
100
AcDbLine
 10
13394.78825599213
 20
-330.3013066198856
 30
0.0
 11
13393.57531745053
 21
-328.4860394716129
 31
0.0
  0
LINE
  5
34F
330
1F
100
AcDbEntity
  8
_キャスター.OTHC-500
  6
Continuous
 62
   161
420
  4236799
370
    15
100
AcDbLine
 10
13391.49547248237
 20
-325.3733217654403
 30
0.0
 11
13388.82701618453
 21
-321.3796830772206
 31
0.0
  0
LINE
  5
350
330
1F
100
AcDbEntity
  8
_キャスター.OTHC-500
  6
Continuous
 62
    30
420
 16737792
370
    15
100
AcDbLine
 10
12604.88157683828
 20
-318.7594283565283
 30
0.0
 11
12604.88157683828
 21
-318.7434177886146
 31
0.0
  0
LINE
  5
351
330
1F
100
AcDbEntity
  8
_キャスター.OTHC-500
  6
Continuous
 62
    30
420
 16737792
370
    15
100
AcDbLine
 10
12604.88157683828
 20
-317.5638593700467
 30
0.0
 11
12604.88157683828
 21
-303.325113482771
 31
0.0
  0
LINE
  5
352
330
1F
100
AcDbEntity
  8
_キャスター.OTHC-500
  6
Continuous
 62
    30
420
 16737792
370
    15
100
AcDbLine
 10
12598.88156342722
 20
-315.8706462593965
 30
0.0
 11
12598.88156342722
 21
-315.2147650634877
 31
0.0
  0
LINE
  5
353
330
1F
100
AcDbEntity
  8
_キャスター.OTHC-500
  6
Continuous
 62
    30
420
 16737792
370
    15
100
AcDbLine
 10
12598.88156342722
 20
-314.2147628283114
 30
0.0
 11
12598.88156342722
 21
-303.325113482771
 31
0.0
  0
LINE
  5
354
330
1F
100
AcDbEntity
  8
_キャスター.OTHC-500
  6
Continuous
 62
    30
420
 16737792
370
    15
100
AcDbLine
 10
13384.88157907345
 20
-318.7594283565283
 30
0.0
 11
13384.88157907345
 21
-318.7434177886146
 31
0.0
  0
LINE
  5
355
330
1F
100
AcDbEntity
  8
_キャスター.OTHC-500
  6
Continuous
 62
    30
420
 16737792
370
    15
100
AcDbLine
 10
13384.88157907345
 20
-317.5638593700467
 30
0.0
 11
13384.88157907345
 21
-303.325113482771
 31
0.0
  0
LINE
  5
356
330
1F
100
AcDbEntity
  8
_キャスター.OTHC-500
  6
Continuous
 62
    30
420
 16737792
370
    15
100
AcDbLine
 10
13378.88156566239
 20
-315.8706462593965
 30
0.0
 11
13378.88156566239
 21
-315.2147650634877
 31
0.0
  0
LINE
  5
357
330
1F
100
AcDbEntity
  8
_キャスター.OTHC-500
  6
Continuous
 62
    30
420
 16737792
370
    15
100
AcDbLine
 10
13378.88156566239
 20
-314.2147628283114
 30
0.0
 11
13378.88156566239
 21
-303.325113482771
 31
0.0
  0
LINE
  5
358
330
1F
100
AcDbEntity
  8
_補強残.OTHC-500
  6
Continuous
 62
    30
420
 16737792
370
    15
100
AcDbLine
 10
13221.3815746031
 20
-252.3251268938289
 30
0.0
 11
13221.3815746031
 21
-262.3251067772421
 31
0.0
  0
LINE
  5
359
330
1F
100
AcDbEntity
  8
_補強残.OTHC-500
  6
Continuous
 62
    30
420
 16737792
370
    15
100
AcDbLine
 10
13201.38157236792
 20
-252.3251268938289
 30
0.0
 11
13221.3815746031
 21
-252.3251268938289
 31
0.0
  0
LINE
  5
35A
330
1F
100
AcDbEntity
  8
_補強残.OTHC-500
  6
Continuous
 62
    30
420
 16737792
370
    15
100
AcDbLine
 10
13201.38157236792
 20
-262.3251067772421
 30
0.0
 11
13201.38157236792
 21
-252.3251268938289
 31
0.0
  0
LINE
  5
35B
330
1F
100
AcDbEntity
  8
_補強残.OTHC-500
  6
Continuous
 62
    30
420
 16737792
370
    15
100
AcDbLine
 10
13087.22040498004
 20
1610.513707953463
 30
0.0
 11
13090.88160142521
 21
1601.67489769311
 31
0.0
  0
LINE
  5
35C
330
1F
100
AcDbEntity
  8
_補強残.OTHC-500
  6
Continuous
 62
    30
420
 16737792
370
    15
100
AcDbLine
 10
13081.52926387783
 20
1612.871083588253
 30
0.0
 11
13087.22040498004
 21
1610.513707953463
 31
0.0
  0
LINE
  5
35D
330
1F
100
AcDbEntity
  8
_補強残.OTHC-500
  6
Continuous
 62
    30
420
 16737792
370
    15
100
AcDbLine
 10
13069.54274199098
 20
1610.513707953463
 30
0.0
 11
13075.36680902839
 21
1612.926122569729
 31
0.0
  0
LINE
  5
35E
330
1F
100
AcDbEntity
  8
_補強残.OTHC-500
  6
Continuous
 62
    30
420
 16737792
370
    15
100
AcDbLine
 10
13065.88158801416
 20
1601.67489769311
 30
0.0
 11
13069.54274199098
 21
1610.513707953463
 31
0.0
  0
LINE
  5
35F
330
1F
100
AcDbEntity
  8
_補強残.OTHC-500
  6
Continuous
 62
    30
420
 16737792
370
    15
100
AcDbLine
 10
13069.54274199098
 20
1592.836044964407
 30
0.0
 11
13065.88158801416
 21
1601.67489769311
 31
0.0
  0
LINE
  5
360
330
1F
100
AcDbEntity
  8
_補強残.OTHC-500
  6
Continuous
 62
    30
420
 16737792
370
    15
100
AcDbLine
 10
13078.38159471969
 20
1589.174890987581
 30
0.0
 11
13069.54274199098
 21
1592.836044964407
 31
0.0
  0
VIEWPORT
  5
6E
330
1B
100
AcDbEntity
 67
     1
  8
0
  6
Continuous
370
     0
100
AcDbViewport
 10
357.9600000000001
 20
148.5
 30
0.0
 40
789.5313287773529
 41
344.3257009345794
 68
     1
 69
     1
 12
357.9600000000001
 22
148.5
 13
0.0
 23
0.0
 14
0.5
 24
0.5
 15
0.0
 25
0.0
 16
0.0
 26
0.0
 36
1.0
 17
0.0
 27
0.0
 37
0.0
 42
50.0
 43
0.0
 44
0.0
 45
344.3257009345794
 50
0.0
 51
0.0
 72
   100
 90
   557152
  1

281
     0
 71
     1
 74
     0
110
0.0
120
0.0
130
0.0
111
1.0
121
0.0
131
0.0
112
0.0
122
1.0
132
0.0
 79
     0
146
0.0
170
     0
 61
     5
348
2F
292
     1
282
     1
141
0.0
142
0.0
361
38A
  0
LINE
  5
361
330
1B
100
AcDbEntity
 67
     1
  8
#2Dマスタレイアウト.2D
  6
Continuous
 62
     7
370
    15
100
AcDbLine
 10
15.0
 20
45.0
 30
0.0
 11
404.9999999999999
 21
45.0
 31
0.0
  0
LWPOLYLINE
  5
363
330
1B
100
AcDbEntity
 67
     1
  8
#2Dマスタレイアウト.2D
  6
Continuous
 62
     7
370
    15
100
AcDbPolyline
 90
        4
 70
     1
 43
0.0
 10
15.0
 20
15.0
 10
404.9999999999999
 20
15.0
 10
404.9999999999999
 20
282.0
 10
15.0
 20
282.0
  0
MTEXT
  5
364
102
{ACAD_XDICTIONARY
360
432
102
}
330
1B
100
AcDbEntity
 67
     1
  8
テキスト
  6
Continuous
 62
     7
370
     5
100
AcDbMText
 10
210.0
 20
30.04774475560133
 30
0.0
 40
5.0
 41
0.0
 46
0.0
 71
     5
 72
     1
  1
\A1;木製可動式音響反射板 OTHC-500
  7
GENERATED_STYLE_1
 73
     1
 44
1.0
  0
VIEWPORT
  5
366
330
1B
100
AcDbEntity
 67
     1
  8
NonPlottable_図面
  6
Continuous
 62
     7
370
     5
100
AcDbViewport
 10
110.0
 20
155.0
 30
0.0
 40
80.0
 41
130.0
 68
     2
 69
     2
 12
0.0
 22
0.0
 13
0.0
 23
0.0
 14
0.5
 24
0.5
 15
0.0
 25
0.0
 16
0.0
 26
0.0
 36
1.0
 17
4696.745236676539
 27
993.7252749700521
 37
0.0
 42
50.0
 43
0.0
 44
0.0
 45
3900.000000000001
 50
0.0
 51
0.0
 72
   100
 90
   622688
340
368
  1

281
     0
 71
     1
 74
     0
110
0.0
120
0.0
130
0.0
111
1.0
121
0.0
131
0.0
112
0.0
122
1.0
132
0.0
 79
     0
146
0.0
170
     0
 61
     5
348
2F
292
     1
282
     1
141
0.0
142
0.0
  0
LWPOLYLINE
  5
368
102
{ACAD_REACTORS
330
366
102
}
330
1B
100
AcDbEntity
 67
     1
  8
NonPlottable_図面
  6
Continuous
 62
     7
370
     5
100
AcDbPolyline
 90
        4
 70
   129
 43
0.0
 10
70.0
 20
90.0
 10
150.0
 20
90.0
 10
150.0
 20
220.0
 10
70.0
 20
220.0
  0
LINE
  5
369
330
1B
100
AcDbEntity
 67
     1
  8
図面
  6
Continuous
 62
     7
370
    15
100
AcDbLine
 10
96.28565714285715
 20
76.49999124999999
 30
0.0
 11
123.7143428571428
 21
76.49999124999999
 31
0.0
  0
LINE
  5
36B
330
1B
100
AcDbEntity
 67
     1
  8
図面
  6
Continuous
 62
     7
370
    15
100
AcDbLine
 10
123.7143428571428
 20
76.49999124999999
 30
0.0
 11
123.7143428571428
 21
80.50000125
 31
0.0
  0
LINE
  5
36C
330
1B
100
AcDbEntity
 67
     1
  8
図面
  6
Continuous
 62
     7
370
    15
100
AcDbLine
 10
123.7143428571428
 20
80.50000125
 30
0.0
 11
96.28565714285715
 21
80.50000125
 31
0.0
  0
LINE
  5
36D
330
1B
100
AcDbEntity
 67
     1
  8
図面
  6
Continuous
 62
     7
370
    15
100
AcDbLine
 10
96.28565714285715
 20
80.50000125
 30
0.0
 11
96.28565714285715
 21
76.49999124999999
 31
0.0
  0
MTEXT
  5
36E
102
{ACAD_XDICTIONARY
360
434
102
}
330
1B
100
AcDbEntity
 67
     1
  8
図面
 62
     7
370
    15
100
AcDbMText
 10
97.99995000000002
 20
79.66145833524071
 30
0.0
 40
3.0
 41
0.0
 46
0.0
 71
     1
 72
     1
  1
\A1;\pt0;正面図  1:30
  7
GENERATED_STYLE_1
 73
     1
 44
1.0
  0
VIEWPORT
  5
36F
330
1B
100
AcDbEntity
 67
     1
  8
NonPlottable_図面
  6
Continuous
 62
     7
370
     5
100
AcDbViewport
 10
180.0
 20
155.0
 30
0.0
 40
60.0
 41
130.0
 68
     3
 69
     3
 12
0.0
 22
0.0
 13
0.0
 23
0.0
 14
0.5
 24
0.5
 15
0.0
 25
0.0
 16
0.0
 26
0.0
 36
1.0
 17
10166.76798704143
 27
993.7252749700521
 37
0.0
 42
50.0
 43
0.0
 44
0.0
 45
3900.000000000001
 50
0.0
 51
0.0
 72
   100
 90
   622688
340
370
  1

281
     0
 71
     1
 74
     0
110
0.0
120
0.0
130
0.0
111
1.0
121
0.0
131
0.0
112
0.0
122
1.0
132
0.0
 79
     0
146
0.0
170
     0
 61
     5
348
2F
292
     1
282
     1
141
0.0
142
0.0
  0
LWPOLYLINE
  5
370
102
{ACAD_REACTORS
330
36F
102
}
330
1B
100
AcDbEntity
 67
     1
  8
NonPlottable_図面
  6
Continuous
 62
     7
370
     5
100
AcDbPolyline
 90
        4
 70
   129
 43
0.0
 10
150.0
 20
90.0
 10
210.0
 20
90.0
 10
210.0
 20
220.0
 10
150.0
 20
220.0
  0
LINE
  5
371
330
1B
100
AcDbEntity
 67
     1
  8
図面
  6
Continuous
 62
     7
370
    15
100
AcDbLine
 10
161.7142285714285
 20
76.49999124999999
 30
0.0
 11
198.2857714285714
 21
76.49999124999999
 31
0.0
  0
LINE
  5
372
330
1B
100
AcDbEntity
 67
     1
  8
図面
  6
Continuous
 62
     7
370
    15
100
AcDbLine
 10
198.2857714285714
 20
76.49999124999999
 30
0.0
 11
198.2857714285714
 21
80.50000125
 31
0.0
  0
LINE
  5
373
330
1B
100
AcDbEntity
 67
     1
  8
図面
  6
Continuous
 62
     7
370
    15
100
AcDbLine
 10
198.2857714285714
 20
80.50000125
 30
0.0
 11
161.7142285714285
 21
80.50000125
 31
0.0
  0
LINE
  5
374
330
1B
100
AcDbEntity
 67
     1
  8
図面
  6
Continuous
 62
     7
370
    15
100
AcDbLine
 10
161.7142285714285
 20
80.50000125
 30
0.0
 11
161.7142285714285
 21
76.49999124999999
 31
0.0
  0
MTEXT
  5
375
102
{ACAD_XDICTIONARY
360
436
102
}
330
1B
100
AcDbEntity
 67
     1
  8
図面
 62
     7
370
    15
100
AcDbMText
 10
163.9999499999999
 20
79.81770833905547
 30
0.0
 40
3.0
 41
0.0
 46
0.0
 71
     1
 72
     1
  1
\A1;\pt0;側面図(右)  1:30
  7
GENERATED_STYLE_1
 73
     1
 44
1.0
  0
VIEWPORT
  5
376
330
1B
100
AcDbEntity
 67
     1
  8
NonPlottable_図面
  6
Continuous
 62
     7
370
     5
100
AcDbViewport
 10
235.0
 20
155.0
 30
0.0
 40
50.00000000000003
 41
130.0
 68
     4
 69
     4
 12
0.0
 22
0.0
 13
0.0
 23
0.0
 14
0.5
 24
0.5
 15
0.0
 25
0.0
 16
0.0
 26
0.0
 36
1.0
 17
12791.41976034419
 27
993.7252749700521
 37
0.0
 42
50.0
 43
0.0
 44
0.0
 45
3900.000000000001
 50
0.0
 51
0.0
 72
   100
 90
   622688
340
377
  1

281
     0
 71
     1
 74
     0
110
0.0
120
0.0
130
0.0
111
1.0
121
0.0
131
0.0
112
0.0
122
1.0
132
0.0
 79
     0
146
0.0
170
     0
 61
     5
348
2F
292
     1
282
     1
141
0.0
142
0.0
  0
LWPOLYLINE
  5
377
102
{ACAD_REACTORS
330
376
102
}
330
1B
100
AcDbEntity
 67
     1
  8
NonPlottable_図面
  6
Continuous
 62
     7
370
     5
100
AcDbPolyline
 90
        4
 70
   129
 43
0.0
 10
210.0
 20
90.0
 10
260.0
 20
90.0
 10
260.0
 20
220.0
 10
210.0
 20
220.0
  0
INSERT
  5
37F
102
{ACAD_XDICTIONARY
360
380
102
}
330
1B
100
AcDbEntity
 67
     1
  8
図面
  6
Continuous
 62
     7
370
     5
100
AcDbBlockReference
  2
図面_1_4
 10
190.3453800737947
 20
53.70805679554632
 30
0.0
  0
VIEWPORT
  5
383
330
1B
100
AcDbEntity
 67
     1
  8
NonPlottable_図面
  6
Continuous
 62
     7
370
     5
100
AcDbViewport
 10
105.0
 20
255.0
 30
0.0
 40
50.0
 41
50.0
 68
     5
 69
     5
 12
0.0
 22
0.0
 13
0.0
 23
0.0
 14
0.5
 24
0.5
 15
0.0
 25
0.0
 16
0.0
 26
0.0
 36
1.0
 17
43.3726183382701
 27
-206.2747250299486
 37
0.0
 42
50.0
 43
0.0
 44
0.0
 45
1500.0
 50
0.0
 51
0.0
 72
   100
 90
   622688
340
384
  1

281
     0
 71
     1
 74
     0
110
0.0
120
0.0
130
0.0
111
1.0
121
0.0
131
0.0
112
0.0
122
1.0
132
0.0
 79
     0
146
0.0
170
     0
 61
     5
348
2F
292
     1
282
     1
141
0.0
142
0.0
  0
LWPOLYLINE
  5
384
102
{ACAD_REACTORS
330
383
102
}
330
1B
100
AcDbEntity
 67
     1
  8
NonPlottable_図面
  6
Continuous
 62
     7
370
     5
100
AcDbPolyline
 90
        4
 70
   129
 43
0.0
 10
80.0
 20
230.0
 10
130.0
 20
230.0
 10
130.0
 20
280.0
 10
80.0
 20
280.0
  0
LINE
  5
385
330
1B
100
AcDbEntity
 67
     1
  8
図面
  6
Continuous
 62
     7
370
    15
100
AcDbLine
 10
84.42851428571428
 20
216.49999125
 30
0.0
 11
125.5714857142857
 21
216.49999125
 31
0.0
  0
LINE
  5
386
330
1B
100
AcDbEntity
 67
     1
  8
図面
  6
Continuous
 62
     7
370
    15
100
AcDbLine
 10
125.5714857142857
 20
216.49999125
 30
0.0
 11
125.5714857142857
 21
220.50000125
 31
0.0
  0
LINE
  5
387
330
1B
100
AcDbEntity
 67
     1
  8
図面
  6
Continuous
 62
     7
370
    15
100
AcDbLine
 10
125.5714857142857
 20
220.50000125
 30
0.0
 11
84.42851428571428
 21
220.50000125
 31
0.0
  0
LINE
  5
388
330
1B
100
AcDbEntity
 67
     1
  8
図面
  6
Continuous
 62
     7
370
    15
100
AcDbLine
 10
84.42851428571428
 20
220.50000125
 30
0.0
 11
84.42851428571428
 21
216.49999125
 31
0.0
  0
MTEXT
  5
389
102
{ACAD_XDICTIONARY
360
438
102
}
330
1B
100
AcDbEntity
 67
     1
  8
図面
 62
     7
370
    15
100
AcDbMText
 10
86.99995000000001
 20
219.8177083390555
 30
0.0
 40
3.0
 41
0.0
 46
0.0
 71
     1
 72
     1
  1
\A1;\pt0;平面図(上面)  1:30
  7
GENERATED_STYLE_1
 73
     1
 44
1.0
  0
ENDSEC
  0
SECTION
  2
OBJECTS
  0
DICTIONARY
  5
C
330
0
100
AcDbDictionary
281
     1
  3
ACAD_CIP_PREVIOUS_PRODUCT_INFO
350
3A6
  3
ACAD_COLOR
350
395
  3
ACAD_DETAILVIEWSTYLE
350
392
  3
ACAD_GROUP
350
D
  3
ACAD_IMAGE_DICT
350
37C
  3
ACAD_IMAGE_VARS
350
3A5
  3
ACAD_LAYOUT
350
1A
  3
ACAD_MATERIAL
350
43
  3
ACAD_MLEADERSTYLE
350
6B
  3
ACAD_MLINESTYLE
350
17
  3
ACAD_PLOTSETTINGS
350
19
  3
ACAD_PLOTSTYLENAME
350
E
  3
ACAD_RENDER_ACTIVE_RAPIDRT_SETTINGS
350
3B0
  3
ACAD_RENDER_ACTIVE_SETTINGS
350
447
  3
ACAD_RENDER_RAPIDRT_SETTINGS
350
3A9
  3
ACAD_SCALELIST
350
47
  3
ACAD_SECTIONVIEWSTYLE
350
393
  3
ACAD_TABLESTYLE
350
69
  3
ACAD_VISUALSTYLE
350
2A
  3
ACAD_WIPEOUT_VARS
350
3A3
  3
ACDB_RECOMPOSE_DATA
350
43A
  3
AcDbVariableDictionary
350
38D
  3
AcDsDecomposeData
350
440
  3
WATERMARKS
350
38B
  0
SUN
  5
6D
330
29
100
AcDbSun
 90
        1
290
     0
 63
     7
421
 16777215
 40
1.0
291
     1
 91
  2455826
 92
 54000000
292
     0
 70
     0
 71
   256
280
     1
1001
ACAD
1000
AcDbSavedByObjectVersion
1070
     0
  0
DICTIONARY
  5
3B5
330
2
100
AcDbDictionary
280
     1
281
     1
  3
ACAD_LAYERSTATES
360
3B6
  0
DICTIONARY
  5
406
330
122
100
AcDbDictionary
280
     1
281
     1
  3
ACAD_MTEXT_2008_RT
360
407
  0
DICTIONARY
  5
408
330
136
100
AcDbDictionary
280
     1
281
     1
  3
ACAD_MTEXT_2008_RT
360
409
  0
DICTIONARY
  5
40A
330
1B6
100
AcDbDictionary
280
     1
281
     1
  3
ACAD_MTEXT_2008_RT
360
40B
  0
DICTIONARY
  5
40C
330
1C5
100
AcDbDictionary
280
     1
281
     1
  3
ACAD_MTEXT_2008_RT
360
40D
  0
DICTIONARY
  5
40E
330
1D2
100
AcDbDictionary
280
     1
281
     1
  3
ACAD_MTEXT_2008_RT
360
40F
  0
DICTIONARY
  5
410
330
1D3
100
AcDbDictionary
280
     1
281
     1
  3
ACAD_MTEXT_2008_RT
360
411
  0
DICTIONARY
  5
412
330
1EE
100
AcDbDictionary
280
     1
281
     1
  3
ACAD_MTEXT_2008_RT
360
413
  0
DICTIONARY
  5
414
330
1FC
100
AcDbDictionary
280
     1
281
     1
  3
ACAD_MTEXT_2008_RT
360
415
  0
DICTIONARY
  5
416
330
20A
100
AcDbDictionary
280
     1
281
     1
  3
ACAD_MTEXT_2008_RT
360
417
  0
DICTIONARY
  5
418
330
218
100
AcDbDictionary
280
     1
281
     1
  3
ACAD_MTEXT_2008_RT
360
419
  0
DICTIONARY
  5
41A
330
226
100
AcDbDictionary
280
     1
281
     1
  3
ACAD_MTEXT_2008_RT
360
41B
  0
DICTIONARY
  5
41C
330
234
100
AcDbDictionary
280
     1
281
     1
  3
ACAD_MTEXT_2008_RT
360
41D
  0
DICTIONARY
  5
41E
330
242
100
AcDbDictionary
280
     1
281
     1
  3
ACAD_MTEXT_2008_RT
360
41F
  0
DICTIONARY
  5
420
330
250
100
AcDbDictionary
280
     1
281
     1
  3
ACAD_MTEXT_2008_RT
360
421
  0
DICTIONARY
  5
422
330
251
100
AcDbDictionary
280
     1
281
     1
  3
ACAD_MTEXT_2008_RT
360
423
  0
DICTIONARY
  5
424
330
26C
100
AcDbDictionary
280
     1
281
     1
  3
ACAD_MTEXT_2008_RT
360
425
  0
DICTIONARY
  5
42E
330
2EC
100
AcDbDictionary
280
     1
281
     1
  3
ACAD_MTEXT_2008_RT
360
42F
  0
IMAGEDEF_REACTOR
  5
37E
330
37B
100
AcDbRasterImageDefReactor
 90
        2
330
37B
  0
DICTIONARY
  5
426
330
26E
100
AcDbDictionary
280
     1
281
     1
  3
ACAD_MTEXT_2008_RT
360
427
  0
DICTIONARY
  5
428
330
270
100
AcDbDictionary
280
     1
281
     1
  3
ACAD_MTEXT_2008_RT
360
429
  0
DICTIONARY
  5
42A
330
271
100
AcDbDictionary
280
     1
281
     1
  3
ACAD_MTEXT_2008_RT
360
42B
  0
DICTIONARY
  5
42C
330
274
100
AcDbDictionary
280
     1
281
     1
  3
ACAD_MTEXT_2008_RT
360
42D
  0
DICTIONARY
  5
430
330
2EE
100
AcDbDictionary
280
     1
281
     1
  3
ACAD_MTEXT_2008_RT
360
431
  0
SUN
  5
38A
330
6E
100
AcDbSun
 90
        1
290
     0
 63
     7
421
 16777215
 40
1.0
291
     1
 91
  2455826
 92
 54000000
292
     0
 70
     0
 71
   256
280
     1
1001
ACAD
1000
AcDbSavedByObjectVersion
1070
     0
  0
DICTIONARY
  5
432
330
364
100
AcDbDictionary
280
     1
281
     1
  3
ACAD_MTEXT_2008_RT
360
433
  0
DICTIONARY
  5
434
330
36E
100
AcDbDictionary
280
     1
281
     1
  3
ACAD_MTEXT_2008_RT
360
435
  0
DICTIONARY
  5
436
330
375
100
AcDbDictionary
280
     1
281
     1
  3
ACAD_MTEXT_2008_RT
360
437
  0
DICTIONARY
  5
380
330
37F
100
AcDbDictionary
280
     1
281
     1
  3
ACAD_FILTER
360
381
  0
DICTIONARY
  5
438
330
389
100
AcDbDictionary
280
     1
281
     1
  3
ACAD_MTEXT_2008_RT
360
439
  0
XRECORD
  5
3A6
102
{ACAD_REACTORS
330
C
102
}
330
C
100
AcDbXrecord
280
     1
300
ACD
300
2021
300

  0
DICTIONARY
  5
395
102
{ACAD_REACTORS
330
C
102
}
330
C
100
AcDbDictionary
281
     1
  0
DICTIONARY
  5
392
102
{ACAD_REACTORS
330
C
102
}
330
C
100
AcDbDictionary
281
     1
  3
Imperial24
350
397
  0
DICTIONARY
  5
D
102
{ACAD_REACTORS
330
C
102
}
330
C
100
AcDbDictionary
281
     1
  0
DICTIONARY
  5
37C
102
{ACAD_REACTORS
330
C
102
}
330
C
100
AcDbDictionary
281
     1
  3
IDF Rendering 47DB4888.jpg
350
37D
  0
RASTERVARIABLES
  5
3A5
102
{ACAD_REACTORS
330
C
102
}
330
C
100
AcDbRasterVariables
 90
        0
 70
     1
 71
     1
 72
     1
  0
DICTIONARY
  5
1A
102
{ACAD_REACTORS
330
C
102
}
330
C
100
AcDbDictionary
281
     1
  3
1 木製可動式音響反射板 OTHC-500
350
1E
  3
Model
350
22
  0
DICTIONARY
  5
43
102
{ACAD_REACTORS
330
C
102
}
330
C
100
AcDbDictionary
281
     1
  3
ByBlock
350
45
  3
ByLayer
350
44
  3
Global
350
46
  0
DICTIONARY
  5
6B
102
{ACAD_REACTORS
330
C
102
}
330
C
100
AcDbDictionary
281
     1
  3
Standard
350
6C
  0
DICTIONARY
  5
17
102
{ACAD_REACTORS
330
C
102
}
330
C
100
AcDbDictionary
281
     1
  3
Standard
350
18
  0
DICTIONARY
  5
19
102
{ACAD_REACTORS
330
C
102
}
330
C
100
AcDbDictionary
281
     1
  0
ACDBDICTIONARYWDFLT
  5
E
102
{ACAD_REACTORS
330
C
102
}
330
C
100
AcDbDictionary
281
     1
  3
Normal
350
F
100
AcDbDictionaryWithDefault
340
F
  0
RAPIDRTRENDERSETTINGS
  5
3B0
102
{ACAD_REACTORS
330
C
102
}
330
C
100
AcDbRenderSettings
 90
        2
  1
中
290
     1
290
     0
290
     1
290
     1
  1

  1
5 レンダリング レベルを適用
 90
        0
100
AcDbRapidRTRenderSettings
 90
        3
 70
     0
 90
        5
 90
        1
 70
     1
 70
     2
 40
3.0
 40
3.0
290
     1
  0
MENTALRAYRENDERSETTINGS
  5
447
102
{ACAD_XDICTIONARY
360
448
102
}
102
{ACAD_REACTORS
330
C
102
}
330
C
100
AcDbRenderSettings
 90
        2
  1
中間
290
     1
290
     1
290
     1
290
     1
  1

  1

 90
        0
100
AcDbMentalRayRenderSettings
 90
        2
 90
        0
 90
        1
 70
     2
 40
3.0
 40
3.0
 40
0.0500000007450581
 40
0.0500000007450581
 40
0.0500000007450581
 40
0.0500000007450581
 70
     0
290
     0
290
     1
 90
        5
 90
        5
 90
        5
290
     0
 90
      500
290
     0
 40
1.0
 90
    10000
 90
        5
 90
        5
 90
        5
290
     0
 90
      200
290
     0
290
     0
290
     0
 40
1.0
 40
1.0
 40
1500.0
 70
     0
 70
     0
 40
10.0
 70
     0
 70
     0
290
     0
  1

 90
       32
 70
     0
 90
     1048
290
     0
 40
1.0
  0
DICTIONARY
  5
3A9
102
{ACAD_REACTORS
330
C
102
}
330
C
100
AcDbDictionary
281
     1
  3
オーバーナイト品質
350
3AF
  3
コーヒー ブレイク品質
350
3AD
  3
ランチ タイム品質
350
3AE
  3
中
350
3AB
  3
低
350
3AA
  3
高
350
3AC
  0
DICTIONARY
  5
47
102
{ACAD_REACTORS
330
C
102
}
330
C
100
AcDbDictionary
281
     1
  3
A0
350
48
  3
A1
350
49
  3
A2
350
4A
  3
A3
350
4B
  3
A4
350
4C
  3
A5
350
4D
  3
A6
350
4E
  3
A7
350
4F
  3
A8
350
50
  3
A9
350
51
  3
B0
350
52
  3
B1
350
53
  3
B2
350
54
  3
B3
350
55
  3
B4
350
56
  3
B5
350
57
  3
B6
350
58
  3
B7
350
59
  3
B8
350
5A
  3
B9
350
5B
  3
C0
350
5C
  3
C1
350
5D
  3
C2
350
5E
  3
C3
350
5F
  3
C4
350
60
  3
C5
350
61
  3
C6
350
62
  3
C7
350
63
  3
C8
350
64
  3
C9
350
65
  3
D0
350
66
  3
D1
350
67
  3
D2
350
68
  0
DICTIONARY
  5
393
102
{ACAD_REACTORS
330
C
102
}
330
C
100
AcDbDictionary
281
     1
  3
Imperial24
350
396
  0
DICTIONARY
  5
69
102
{ACAD_REACTORS
330
C
102
}
330
C
100
AcDbDictionary
281
     1
  3
Standard
350
6A
  0
DICTIONARY
  5
2A
102
{ACAD_REACTORS
330
C
102
}
330
C
100
AcDbDictionary
281
     1
  3
2dWireframe
350
2F
  3
Basic
350
32
  3
Brighten
350
36
  3
ColorChange
350
3A
  3
Conceptual
350
34
  3
Dim
350
35
  3
EdgeColorOff
350
3D
  3
Facepattern
350
39
  3
Flat
350
2B
  3
FlatWithEdges
350
2C
  3
Gouraud
350
2D
  3
GouraudWithEdges
350
2E
  3
Hidden
350
31
  3
JitterOff
350
3B
  3
Linepattern
350
38
  3
OverhangOff
350
3C
  3
Realistic
350
33
  3
Shaded
350
42
  3
Shaded with edges
350
41
  3
Shades of Gray
350
3E
  3
Sketchy
350
3F
  3
Thicken
350
37
  3
Wireframe
350
30
  3
X-Ray
350
40
  0
WIPEOUTVARIABLES
  5
3A3
102
{ACAD_REACTORS
330
C
102
}
330
C
100
AcDbWipeoutVariables
 70
     1
  0
XRECORD
  5
43A
102
{ACAD_REACTORS
330
C
102
}
330
C
100
AcDbXrecord
280
     1
 90
        1
330
6A
330
122
330
136
330
1B6
330
1C5
330
1D2
330
1D3
330
1EE
330
1FC
330
20A
330
218
330
226
330
234
330
242
330
250
330
251
330
26C
330
26E
330
270
330
271
330
274
330
2EC
330
2EE
330
364
330
36E
330
375
330
389
  0
DICTIONARY
  5
38D
102
{ACAD_REACTORS
330
C
102
}
330
C
100
AcDbDictionary
281
     1
  3
CANNOSCALE
350
38E
  3
CMLEADERSTYLE
350
390
  3
CTABLESTYLE
350
38F
  3
CVIEWDETAILSTYLE
350
402
  3
CVIEWSECTIONSTYLE
350
403
  3
XCLIPFRAME
350
391
  0
DICTIONARY
  5
440
102
{ACAD_REACTORS
330
C
102
}
330
C
100
AcDbDictionary
281
     1
  3
AcDsRecords
350
442
  3
AcDsSchemas
350
441
1001
ACAD
1070
     2
  0
DICTIONARY
  5
38B
102
{ACAD_REACTORS
330
C
102
}
330
C
100
AcDbDictionary
281
     1
  3
AC_WATERMARK
350
38C
  0
DICTIONARY
  5
3B6
102
{ACAD_REACTORS
330
3B5
102
}
330
3B5
100
AcDbDictionary
281
     1
  0
XRECORD
  5
407
102
{ACAD_REACTORS
330
406
102
}
330
406
100
AcDbXrecord
280
     1
 40
1520.0
  1
\A1;{\pql;\fMS Gothic|b0|i0|c128|p53;910}
  0
XRECORD
  5
409
102
{ACAD_REACTORS
330
408
102
}
330
408
100
AcDbXrecord
280
     1
 40
1509.0
  1
\A1;{\pql;\fMS Gothic|b0|i0|c128|p53;800}
  0
XRECORD
  5
40B
102
{ACAD_REACTORS
330
40A
102
}
330
40A
100
AcDbXrecord
280
     1
 40
1520.0
  1
\A1;{\pql;\fMS Gothic|b0|i0|c128|p53;910}
  0
XRECORD
  5
40D
102
{ACAD_REACTORS
330
40C
102
}
330
40C
100
AcDbXrecord
280
     1
 40
1504.0
  1
\A1;{\pql;\fMS Gothic|b0|i0|c128|p53;150}
  0
XRECORD
  5
40F
102
{ACAD_REACTORS
330
40E
102
}
330
40E
100
AcDbXrecord
280
     1
 40
2338.0
  1
\A1;{\pql;\fMS Gothic|b0|i0|c128|p53;1,820}
  0
XRECORD
  5
411
102
{ACAD_REACTORS
330
410
102
}
330
410
100
AcDbXrecord
280
     1
 40
1138.0
  1
\A1;{\pql;\fMS Gothic|b0|i0|c128|p53;10}
  0
XRECORD
  5
413
102
{ACAD_REACTORS
330
412
102
}
330
412
100
AcDbXrecord
280
     1
 40
1552.0
  1
\A1;{\pql;\fMS Gothic|b0|i0|c128|p53;780}
  0
XRECORD
  5
415
102
{ACAD_REACTORS
330
414
102
}
330
414
100
AcDbXrecord
280
     1
 40
1568.0
  1
\A1;{\pql;\fMS Gothic|b0|i0|c128|p53;845}
  0
XRECORD
  5
417
102
{ACAD_REACTORS
330
416
102
}
330
416
100
AcDbXrecord
280
     1
 40
1193.0
  1
\A1;{\pql;\fMS Gothic|b0|i0|c128|p53;65}
  0
XRECORD
  5
419
102
{ACAD_REACTORS
330
418
102
}
330
418
100
AcDbXrecord
280
     1
 40
1193.0
  1
\A1;{\pql;\fMS Gothic|b0|i0|c128|p53;65}
  0
XRECORD
  5
41B
102
{ACAD_REACTORS
330
41A
102
}
330
41A
100
AcDbXrecord
280
     1
 40
1173.0
  1
\A1;{\pql;\fMS Gothic|b0|i0|c128|p53;25}
  0
XRECORD
  5
41D
102
{ACAD_REACTORS
330
41C
102
}
330
41C
100
AcDbXrecord
280
     1
 40
2385.0
  1
\A1;{\pql;\fMS Gothic|b0|i0|c128|p53;1,970}
  0
XRECORD
  5
41F
102
{ACAD_REACTORS
330
41E
102
}
330
41E
100
AcDbXrecord
280
     1
 40
2368.0
  1
\A1;{\pql;\fMS Gothic|b0|i0|c128|p53;2,760}
  0
XRECORD
  5
421
102
{ACAD_REACTORS
330
420
102
}
330
420
100
AcDbXrecord
280
     1
 40
1199.0
  1
\A1;{\pql;\fMS Gothic|b0|i0|c128|p53;66}
  0
XRECORD
  5
423
102
{ACAD_REACTORS
330
422
102
}
330
422
100
AcDbXrecord
280
     1
 40
1153.0
  1
\A1;{\pql;\fMS Gothic|b0|i0|c128|p53;40}
  0
XRECORD
  5
425
102
{ACAD_REACTORS
330
424
102
}
330
424
100
AcDbXrecord
280
     1
 40
1177.0
  1
\A1;{\pql;\fMS Gothic|b0|i0|c128|p53;44}
  0
XRECORD
  5
42F
102
{ACAD_REACTORS
330
42E
102
}
330
42E
100
AcDbXrecord
280
     1
 40
1509.0
  1
\A1;{\pql;\fMS Gothic|b0|i0|c128|p53;800}
  0
XRECORD
  5
427
102
{ACAD_REACTORS
330
426
102
}
330
426
100
AcDbXrecord
280
     1
 40
363112.0
  1
\A1;{\pql;\fMS Gothic|b0|i0|c128|p53;上パネル}
  0
XRECORD
  5
429
102
{ACAD_REACTORS
330
428
102
}
330
428
100
AcDbXrecord
280
     1
 40
363117.0
  1
\A1;{\pql;\fMS Gothic|b0|i0|c128|p53;下パネル}
  0
XRECORD
  5
42B
102
{ACAD_REACTORS
330
42A
102
}
330
42A
100
AcDbXrecord
280
     1
 40
562907.0
  1
\A1;{\pql;\fMS Gothic|b0|i0|c128|p53;トルクヒンジ}
  0
XRECORD
  5
42D
102
{ACAD_REACTORS
330
42C
102
}
330
42C
100
AcDbXrecord
280
     1
 40
521124.0
  1
\A1;{\pql;\fMS Gothic|b0|i0|c128|p53;支柱脚}
  0
XRECORD
  5
431
102
{ACAD_REACTORS
330
430
102
}
330
430
100
AcDbXrecord
280
     1
 40
509068.0
  1
\A1;{\pql;\fMS Gothic|b0|i0|c128|p53;補強桟}
  0
XRECORD
  5
433
102
{ACAD_REACTORS
330
432
102
}
330
432
100
AcDbXrecord
280
     1
 40
2643642.0
  1
\A1;{\pqc;\fMS Gothic|b0|i0|c128|p53;木製可動式音響反射板 OTHC-500}
  0
XRECORD
  5
435
102
{ACAD_REACTORS
330
434
102
}
330
434
100
AcDbXrecord
280
     1
 40
976034.0
  1
\A1;{\pql;\pt0;\fMS Gothic|b0|i0|c128|p53;正面図  1:30}
  0
XRECORD
  5
437
102
{ACAD_REACTORS
330
436
102
}
330
436
100
AcDbXrecord
280
     1
 40
1209903.0
  1
\A1;{\pql;\pt0;\fMS Gothic|b0|i0|c128|p53;側面図(右)  1:30}
  0
DICTIONARY
  5
381
102
{ACAD_REACTORS
330
380
102
}
330
380
100
AcDbDictionary
280
     1
281
     1
  3
SPATIAL
360
382
  0
XRECORD
  5
439
102
{ACAD_REACTORS
330
438
102
}
330
438
100
AcDbXrecord
280
     1
 40
1806172.0
  1
\A1;{\pql;\pt0;\fMS Gothic|b0|i0|c128|p53;平面図(上面)  1:30}
  0
ACDBDETAILVIEWSTYLE
  5
397
102
{ACAD_XDICTIONARY
360
445
102
}
102
{ACAD_REACTORS
330
392
102
}
330
392
100
AcDbModelDocViewStyle
 70
     0
  3
Imperial24
290
     0
100
AcDbDetailViewStyle
 70
     0
 71
     0
 90
        3
 71
     1
340
11
 62
   256
 40
0.24
340
0
 62
   256
 40
0.24
300

 40
0.36
280
     3
 71
     2
340
16
 90
       25
 62
   256
 71
     3
340
11
 62
   256
 40
0.24
 90
        1
 40
0.75
 90
        1
300
%<\AcVar ViewType \f "%tc1">% %<\AcVar ViewDetailId>%\PSCALE %<\AcVar ViewScale \f "%sn">%
 71
     4
340
16
 90
       25
 62
   256
340
16
 90
       25
 62
   256
280
     0
  0
IMAGEDEF
  5
37D
102
{ACAD_REACTORS
330
37C
330
37E
102
}
330
37C
100
AcDbRasterImageDef
 90
        0
  1
IDF Rendering 47DB4888.jpg
 10
1434.0
 20
871.0
 11
0.000697350069735
 21
0.000697350069735
280
     1
281
     0
  0
LAYOUT
  5
1E
102
{ACAD_REACTORS
330
1A
102
}
330
1A
100
AcDbPlotSettings
  1

  2
none_device
  4

  6

 40
15.0
 41
15.0
 42
15.0
 43
15.0
 44
420.0
 45
297.0
 46
0.0
 47
0.0
 48
0.0
 49
0.0
140
0.0
141
0.0
142
1.0
143
1.0
 70
   688
 72
     1
 73
     0
 74
     5
  7

 75
    16
147
1.0
 76
     0
 77
     2
 78
   300
148
-15.0
149
-15.0
100
AcDbLayout
  1
1 木製可動式音響反射板 OTHC-500
 70
     0
 71
     1
 10
0.0
 20
0.0
 11
12.0
 21
9.0
 12
0.0
 22
0.0
 32
0.0
 14
15.0
 24
15.0
 34
0.0
 15
404.9999999999999
 25
282.0
 35
0.0
146
0.0
 13
0.0
 23
0.0
 33
0.0
 16
1.0
 26
0.0
 36
0.0
 17
0.0
 27
1.0
 37
0.0
 76
     0
330
1B
331
6E
  0
LAYOUT
  5
22
102
{ACAD_REACTORS
330
1A
102
}
330
1A
100
AcDbPlotSettings
  1

  2
none_device
  4
Letter_(8.50_x_11.00_Inches)
  6

 40
6.349999999999999
 41
6.349999999999999
 42
6.350005079999999
 43
6.350005079999999
 44
215.9
 45
279.4
 46
0.0
 47
0.0
 48
0.0
 49
0.0
140
0.0
141
0.0
142
1.0
143
1.0
 70
  1712
 72
     0
 73
     0
 74
     0
  7

 75
     0
147
1.0
 76
     0
 77
     2
 78
   300
148
0.0
149
0.0
100
AcDbLayout
  1
Model
 70
     1
 71
     0
 10
0.0
 20
0.0
 11
12.0
 21
9.0
 12
0.0
 22
0.0
 32
0.0
 14
1.000000000000000E+20
 24
1.000000000000000E+20
 34
1.000000000000000E+20
 15
-1.000000000000000E+20
 25
-1.000000000000000E+20
 35
-1.000000000000000E+20
146
0.0
 13
0.0
 23
0.0
 33
0.0
 16
1.0
 26
0.0
 36
0.0
 17
0.0
 27
1.0
 37
0.0
 76
     0
330
1F
331
29
  0
MATERIAL
  5
45
102
{ACAD_REACTORS
330
43
102
}
330
43
100
AcDbMaterial
  1
ByBlock
 73
     1
 78
     1
172
     1
176
     1
270
     1
274
     1
  0
MATERIAL
  5
44
102
{ACAD_REACTORS
330
43
102
}
330
43
100
AcDbMaterial
  1
ByLayer
 73
     1
 78
     1
172
     1
176
     1
270
     1
274
     1
  0
MATERIAL
  5
46
102
{ACAD_REACTORS
330
43
102
}
330
43
100
AcDbMaterial
  1
Global
 73
     1
 78
     1
172
     1
176
     1
270
     1
274
     1
  0
MLEADERSTYLE
  5
6C
102
{ACAD_REACTORS
330
6B
102
}
330
6B
100
AcDbMLeaderStyle
179
     2
170
     2
171
     1
172
     0
 90
        2
 40
0.0
 41
0.0
173
     1
 91
-1056964608
340
14
 92
       -2
290
     1
 42
0.09
291
     1
 43
0.36
  3
Standard
 44
0.18
300

342
11
174
     1
178
     6
175
     1
176
     0
 93
-1056964608
 45
0.18
292
     0
297
     0
 46
0.18
 94
-1056964608
 47
1.0
 49
1.0
140
1.0
293
     1
141
0.0
294
     1
177
     0
142
1.0
295
     0
296
     0
143
0.125
271
     0
272
     9
273
     9
298
     0
  0
MLINESTYLE
  5
18
102
{ACAD_REACTORS
330
17
102
}
330
17
100
AcDbMlineStyle
  2
STANDARD
 70
     0
  3

 62
   256
 51
90.0
 52
90.0
 71
     2
 49
0.5
 62
   256
  6
BYLAYER
 49
-0.5
 62
   256
  6
BYLAYER
  0
ACDBPLACEHOLDER
  5
F
102
{ACAD_REACTORS
330
E
102
}
330
E
  0
DICTIONARY
  5
448
330
447
100
AcDbDictionary
280
     1
281
     1
  3
ACAD_XREC_ROUNDTRIP
360
44A
  3
ADSK_XREC_MENTALRAYSETTINGSINFO
360
449
  0
RAPIDRTRENDERSETTINGS
  5
3AF
102
{ACAD_REACTORS
330
3A9
102
}
330
3A9
100
AcDbRenderSettings
 90
        2
  1
オーバーナイト品質
290
     1
290
     0
290
     1
290
     1
  1

  1
12 時間のレンダリング
 90
        5
100
AcDbRapidRTRenderSettings
 90
        3
 70
     1
 90
        1
 90
      720
 70
     2
 70
     2
 40
3.0
 40
3.0
290
     1
  0
RAPIDRTRENDERSETTINGS
  5
3AD
102
{ACAD_REACTORS
330
3A9
102
}
330
3A9
100
AcDbRenderSettings
 90
        2
  1
コーヒー ブレイク品質
290
     1
290
     0
290
     1
290
     1
  1

  1
10 分のレンダリング
 90
        3
100
AcDbRapidRTRenderSettings
 90
        3
 70
     1
 90
        1
 90
       10
 70
     1
 70
     2
 40
3.0
 40
3.0
290
     1
  0
RAPIDRTRENDERSETTINGS
  5
3AE
102
{ACAD_REACTORS
330
3A9
102
}
330
3A9
100
AcDbRenderSettings
 90
        2
  1
ランチ タイム品質
290
     1
290
     0
290
     1
290
     1
  1

  1
60 分のレンダリング
 90
        4
100
AcDbRapidRTRenderSettings
 90
        3
 70
     1
 90
        1
 90
       60
 70
     2
 70
     2
 40
3.0
 40
3.0
290
     1
  0
RAPIDRTRENDERSETTINGS
  5
3AB
102
{ACAD_REACTORS
330
3A9
102
}
330
3A9
100
AcDbRenderSettings
 90
        2
  1
中
290
     1
290
     0
290
     1
290
     1
  1

  1
5 レンダリング レベルを適用
 90
        1
100
AcDbRapidRTRenderSettings
 90
        3
 70
     0
 90
        5
 90
        1
 70
     1
 70
     2
 40
3.0
 40
3.0
290
     1
  0
RAPIDRTRENDERSETTINGS
  5
3AA
102
{ACAD_REACTORS
330
3A9
102
}
330
3A9
100
AcDbRenderSettings
 90
        2
  1
低
290
     1
290
     0
290
     1
290
     1
  1

  1
1 レンダリング レベルを適用
 90
        0
100
AcDbRapidRTRenderSettings
 90
        3
 70
     0
 90
        1
 90
        1
 70
     0
 70
     2
 40
3.0
 40
3.0
290
     1
  0
RAPIDRTRENDERSETTINGS
  5
3AC
102
{ACAD_REACTORS
330
3A9
102
}
330
3A9
100
AcDbRenderSettings
 90
        2
  1
高
290
     1
290
     0
290
     1
290
     1
  1

  1
10 レンダリング レベルを適用
 90
        2
100
AcDbRapidRTRenderSettings
 90
        3
 70
     0
 90
       10
 90
        1
 70
     2
 70
     2
 40
3.0
 40
3.0
290
     1
  0
SCALE
  5
48
102
{ACAD_REACTORS
330
47
102
}
330
47
100
AcDbScale
 70
     0
300
1:1
140
1.0
141
1.0
290
     1
  0
SCALE
  5
49
102
{ACAD_REACTORS
330
47
102
}
330
47
100
AcDbScale
 70
     0
300
1:2
140
1.0
141
2.0
290
     0
  0
SCALE
  5
4A
102
{ACAD_REACTORS
330
47
102
}
330
47
100
AcDbScale
 70
     0
300
1:4
140
1.0
141
4.0
290
     0
  0
SCALE
  5
4B
102
{ACAD_REACTORS
330
47
102
}
330
47
100
AcDbScale
 70
     0
300
1:5
140
1.0
141
5.0
290
     0
  0
SCALE
  5
4C
102
{ACAD_REACTORS
330
47
102
}
330
47
100
AcDbScale
 70
     0
300
1:8
140
1.0
141
8.0
290
     0
  0
SCALE
  5
4D
102
{ACAD_REACTORS
330
47
102
}
330
47
100
AcDbScale
 70
     0
300
1:10
140
1.0
141
10.0
290
     0
  0
SCALE
  5
4E
102
{ACAD_REACTORS
330
47
102
}
330
47
100
AcDbScale
 70
     0
300
1:16
140
1.0
141
16.0
290
     0
  0
SCALE
  5
4F
102
{ACAD_REACTORS
330
47
102
}
330
47
100
AcDbScale
 70
     0
300
1:20
140
1.0
141
20.0
290
     0
  0
SCALE
  5
50
102
{ACAD_REACTORS
330
47
102
}
330
47
100
AcDbScale
 70
     0
300
1:30
140
1.0
141
30.0
290
     0
  0
SCALE
  5
51
102
{ACAD_REACTORS
330
47
102
}
330
47
100
AcDbScale
 70
     0
300
1:40
140
1.0
141
40.0
290
     0
  0
SCALE
  5
52
102
{ACAD_REACTORS
330
47
102
}
330
47
100
AcDbScale
 70
     0
300
1:50
140
1.0
141
50.0
290
     0
  0
SCALE
  5
53
102
{ACAD_REACTORS
330
47
102
}
330
47
100
AcDbScale
 70
     0
300
1:100
140
1.0
141
100.0
290
     0
  0
SCALE
  5
54
102
{ACAD_REACTORS
330
47
102
}
330
47
100
AcDbScale
 70
     0
300
2:1
140
2.0
141
1.0
290
     0
  0
SCALE
  5
55
102
{ACAD_REACTORS
330
47
102
}
330
47
100
AcDbScale
 70
     0
300
4:1
140
4.0
141
1.0
290
     0
  0
SCALE
  5
56
102
{ACAD_REACTORS
330
47
102
}
330
47
100
AcDbScale
 70
     0
300
8:1
140
8.0
141
1.0
290
     0
  0
SCALE
  5
57
102
{ACAD_REACTORS
330
47
102
}
330
47
100
AcDbScale
 70
     0
300
10:1
140
10.0
141
1.0
290
     0
  0
SCALE
  5
58
102
{ACAD_REACTORS
330
47
102
}
330
47
100
AcDbScale
 70
     0
300
100:1
140
100.0
141
1.0
290
     0
  0
SCALE
  5
59
102
{ACAD_REACTORS
330
47
102
}
330
47
100
AcDbScale
 70
     0
300
1/128" = 1'-0"
140
0.0078125
141
12.0
290
     0
  0
SCALE
  5
5A
102
{ACAD_REACTORS
330
47
102
}
330
47
100
AcDbScale
 70
     0
300
1/64" = 1'-0"
140
0.015625
141
12.0
290
     0
  0
SCALE
  5
5B
102
{ACAD_REACTORS
330
47
102
}
330
47
100
AcDbScale
 70
     0
300
1/32" = 1'-0"
140
0.03125
141
12.0
290
     0
  0
SCALE
  5
5C
102
{ACAD_REACTORS
330
47
102
}
330
47
100
AcDbScale
 70
     0
300
1/16" = 1'-0"
140
0.0625
141
12.0
290
     0
  0
SCALE
  5
5D
102
{ACAD_REACTORS
330
47
102
}
330
47
100
AcDbScale
 70
     0
300
3/32" = 1'-0"
140
0.09375
141
12.0
290
     0
  0
SCALE
  5
5E
102
{ACAD_REACTORS
330
47
102
}
330
47
100
AcDbScale
 70
     0
300
1/8" = 1'-0"
140
0.125
141
12.0
290
     0
  0
SCALE
  5
5F
102
{ACAD_REACTORS
330
47
102
}
330
47
100
AcDbScale
 70
     0
300
3/16" = 1'-0"
140
0.1875
141
12.0
290
     0
  0
SCALE
  5
60
102
{ACAD_REACTORS
330
47
102
}
330
47
100
AcDbScale
 70
     0
300
1/4" = 1'-0"
140
0.25
141
12.0
290
     0
  0
SCALE
  5
61
102
{ACAD_REACTORS
330
47
102
}
330
47
100
AcDbScale
 70
     0
300
3/8" = 1'-0"
140
0.375
141
12.0
290
     0
  0
SCALE
  5
62
102
{ACAD_REACTORS
330
47
102
}
330
47
100
AcDbScale
 70
     0
300
1/2" = 1'-0"
140
0.5
141
12.0
290
     0
  0
SCALE
  5
63
102
{ACAD_REACTORS
330
47
102
}
330
47
100
AcDbScale
 70
     0
300
3/4" = 1'-0"
140
0.75
141
12.0
290
     0
  0
SCALE
  5
64
102
{ACAD_REACTORS
330
47
102
}
330
47
100
AcDbScale
 70
     0
300
1" = 1'-0"
140
1.0
141
12.0
290
     0
  0
SCALE
  5
65
102
{ACAD_REACTORS
330
47
102
}
330
47
100
AcDbScale
 70
     0
300
1-1/2" = 1'-0"
140
1.5
141
12.0
290
     0
  0
SCALE
  5
66
102
{ACAD_REACTORS
330
47
102
}
330
47
100
AcDbScale
 70
     0
300
3" = 1'-0"
140
3.0
141
12.0
290
     0
  0
SCALE
  5
67
102
{ACAD_REACTORS
330
47
102
}
330
47
100
AcDbScale
 70
     0
300
6" = 1'-0"
140
6.0
141
12.0
290
     0
  0
SCALE
  5
68
102
{ACAD_REACTORS
330
47
102
}
330
47
100
AcDbScale
 70
     0
300
1'-0" = 1'-0"
140
12.0
141
12.0
290
     0
  0
ACDBSECTIONVIEWSTYLE
  5
396
102
{ACAD_XDICTIONARY
360
443
102
}
102
{ACAD_REACTORS
330
393
102
}
330
393
100
AcDbModelDocViewStyle
 70
     0
  3
Imperial24
290
     0
100
AcDbSectionViewStyle
 70
     0
 71
     0
 90
       78
 71
     1
340
11
 62
   256
 40
0.24
340
0
340
0
 62
   256
 40
0.24
300
I, O, Q, S, X, Z
 40
0.48
 90
        3
 40
0.18
 90
        1
 71
     2
340
16
 90
       25
 62
   256
340
16
 90
       50
 62
   256
 40
0.24
 40
0.0
 40
0.24
 71
     3
340
11
 62
   256
 40
0.24
 90
        1
 40
0.75
 90
        1
300
%<\AcVar ViewType \f "%tc1">% %<\AcVar ViewSectionStartId>%-%<\AcVar ViewSectionEndId>%\PSCALE %<\AcVar ViewScale \f "%sn">%
 71
     4
 62
   256
 62
   257
300
ANSI31
 40
1.0
 90
        0
290
     0
290
     0
 90
        6
 40
0.0
 40
1.570796326794896
 40
0.2617993877991494
 40
1.308996938995747
 40
-0.2617993877991494
 40
1.832595714594046
  0
TABLESTYLE
  5
6A
102
{ACAD_XDICTIONARY
360
404
102
}
102
{ACAD_REACTORS
330
69
102
}
330
69
100
AcDbTableStyle
280
     0
  3
Standard
 70
     0
 71
     0
 40
0.06
 41
0.06
280
     0
281
     0
  7
Standard
140
0.18
170
     2
 62
     0
 63
     7
283
     0
 90
        4
 91
        0
  1

274
    -2
284
     1
 64
     0
275
    -2
285
     1
 65
     0
276
    -2
286
     1
 66
     0
277
    -2
287
     1
 67
     0
278
    -2
288
     1
 68
     0
279
    -2
289
     1
 69
     0
  7
Standard
140
0.25
170
     5
 62
     0
 63
     7
283
     0
 90
        4
 91
        0
  1

274
    -2
284
     1
 64
     0
275
    -2
285
     1
 65
     0
276
    -2
286
     1
 66
     0
277
    -2
287
     1
 67
     0
278
    -2
288
     1
 68
     0
279
    -2
289
     1
 69
     0
  7
Standard
140
0.18
170
     5
 62
     0
 63
     7
283
     0
 90
        4
 91
        0
  1

274
    -2
284
     1
 64
     0
275
    -2
285
     1
 65
     0
276
    -2
286
     1
 66
     0
277
    -2
287
     1
 67
     0
278
    -2
288
     1
 68
     0
279
    -2
289
     1
 69
     0
  0
VISUALSTYLE
  5
2F
102
{ACAD_REACTORS
330
2A
102
}
330
2A
100
AcDbVisualStyle
  2
2dWireframe
 70
     4
177
     3
291
     0
 70
    58
 90
        0
176
     1
 90
        2
176
     1
 90
        0
176
     1
 90
        0
176
     1
 40
0.6
176
     1
 40
30.0
176
     1
 62
     7
420
 16777215
176
     1
 90
        1
176
     1
 90
        4
176
     1
 62
     7
176
     1
 62
   257
176
     1
 90
        1
176
     1
 90
        1
176
     1
 40
1.0
176
     1
 90
        0
176
     1
 62
   257
176
     1
 40
1.0
176
     1
 90
        1
176
     1
 90
        6
176
     1
 90
        2
176
     1
 62
     7
176
     1
 90
        5
176
     1
 90
        0
176
     1
 90
        0
176
     1
290
     0
176
     1
 90
        1
176
     1
 40
0.0
176
     1
 90
        0
176
     1
290
     1
176
     1
290
     1
176
     1
290
     0
176
     1
290
     0
176
     1
290
     0
176
     1
290
     0
176
     1
290
     0
176
     1
290
     0
176
     1
290
     0
176
     1
 90
       50
176
     1
 40
0.0
176
     1
 40
1.0
176
     1
 90
        0
176
     1
 62
    18
420
        0
176
     1
 90
       50
176
     1
 90
        3
176
     1
 62
     5
420
      255
176
     1
290
     0
176
     1
 90
       50
176
     1
 90
       50
176
     1
 90
       50
176
     1
290
     0
176
     1
 90
       50
176
     1
 62
   256
176
     0
 40
1.0
176
     0
 90
        2
176
     1
  1
strokes_ogs.tif
176
     1
290
     0
176
     1
 40
1.0
176
     1
 40
1.0
176
     1
1001
ACAD
1000
AcDbSavedByObjectVersion
1070
     0
  0
VISUALSTYLE
  5
32
102
{ACAD_REACTORS
330
2A
102
}
330
2A
100
AcDbVisualStyle
  2
Basic
 70
     7
177
     3
291
     1
 70
    58
 90
        1
176
     1
 90
        0
176
     1
 90
        1
176
     1
 90
        0
176
     1
 40
0.6
176
     1
 40
30.0
176
     1
 62
     7
420
 16777215
176
     1
 90
        0
176
     1
 90
        4
176
     1
 62
     7
176
     1
 62
   257
176
     1
 90
        1
176
     1
 90
        1
176
     1
 40
1.0
176
     1
 90
        8
176
     1
 62
     7
176
     1
 40
1.0
176
     1
 90
        1
176
     1
 90
        6
176
     1
 90
        2
176
     1
 62
     7
176
     1
 90
        5
176
     1
 90
        0
176
     1
 90
        0
176
     1
290
     0
176
     1
 90
        1
176
     1
 40
0.0
176
     1
 90
        0
176
     1
290
     0
176
     1
290
     1
176
     1
290
     1
176
     1
290
     0
176
     1
290
     0
176
     1
290
     0
176
     1
290
     0
176
     1
290
     0
176
     1
290
     0
176
     1
 90
       50
176
     1
 40
0.0
176
     1
 40
1.0
176
     1
 90
        0
176
     1
 62
    18
420
        0
176
     1
 90
       50
176
     1
 90
        3
176
     1
 62
     5
420
      255
176
     1
290
     0
176
     1
 90
       50
176
     1
 90
       50
176
     1
 90
       50
176
     1
290
     0
176
     1
 90
       50
176
     1
 62
   256
176
     0
 40
1.0
176
     0
 90
        2
176
     1
  1
strokes_ogs.tif
176
     1
290
     0
176
     1
 40
1.0
176
     1
 40
1.0
176
     1
1001
ACAD
1000
AcDbSavedByObjectVersion
1070
     0
  0
VISUALSTYLE
  5
36
102
{ACAD_REACTORS
330
2A
102
}
330
2A
100
AcDbVisualStyle
  2
Brighten
 70
    12
177
     3
291
     1
 70
    58
 90
        2
176
     1
 90
        2
176
     1
 90
        0
176
     1
 90
        0
176
     1
 40
0.6
176
     1
 40
30.0
176
     1
 62
     7
420
 16777215
176
     1
 90
        1
176
     1
 90
        4
176
     1
 62
     7
176
     1
 62
   257
176
     1
 90
        1
176
     1
 90
        1
176
     1
 40
1.0
176
     1
 90
        8
176
     1
 62
     7
176
     1
 40
1.0
176
     1
 90
        1
176
     1
 90
        6
176
     1
 90
        2
176
     1
 62
     7
176
     1
 90
        5
176
     1
 90
        0
176
     1
 90
        0
176
     1
290
     0
176
     1
 90
        1
176
     1
 40
50.0
176
     1
 90
        0
176
     1
290
     0
176
     1
290
     1
176
     1
290
     1
176
     1
290
     0
176
     1
290
     0
176
     1
290
     0
176
     1
290
     0
176
     1
290
     0
176
     1
290
     0
176
     1
 90
       50
176
     1
 40
0.0
176
     1
 40
1.0
176
     1
 90
        0
176
     1
 62
    18
420
        0
176
     1
 90
       50
176
     1
 90
        3
176
     1
 62
     5
420
      255
176
     1
290
     0
176
     1
 90
       50
176
     1
 90
       50
176
     1
 90
       50
176
     1
290
     0
176
     1
 90
       50
176
     1
 62
   256
176
     0
 40
1.0
176
     0
 90
        2
176
     1
  1
strokes_ogs.tif
176
     1
290
     0
176
     1
 40
1.0
176
     1
 40
1.0
176
     1
1001
ACAD
1000
AcDbSavedByObjectVersion
1070
     0
  0
VISUALSTYLE
  5
3A
102
{ACAD_REACTORS
330
2A
102
}
330
2A
100
AcDbVisualStyle
  2
ColorChange
 70
    16
177
     3
291
     1
 70
    58
 90
        2
176
     1
 90
        2
176
     1
 90
        3
176
     1
 90
        0
176
     1
 40
0.6
176
     1
 40
30.0
176
     1
 62
     8
420
  8421504
176
     1
 90
        1
176
     1
 90
        4
176
     1
 62
     7
176
     1
 62
   257
176
     1
 90
        1
176
     1
 90
        1
176
     1
 40
1.0
176
     1
 90
        8
176
     1
 62
     8
420
  8421504
176
     1
 40
1.0
176
     1
 90
        1
176
     1
 90
        6
176
     1
 90
        2
176
     1
 62
     7
176
     1
 90
        5
176
     1
 90
        0
176
     1
 90
        0
176
     1
290
     0
176
     1
 90
        1
176
     1
 40
0.0
176
     1
 90
        0
176
     1
290
     0
176
     1
290
     1
176
     1
290
     1
176
     1
290
     0
176
     1
290
     0
176
     1
290
     0
176
     1
290
     0
176
     1
290
     0
176
     1
290
     0
176
     1
 90
       50
176
     1
 40
0.0
176
     1
 40
1.0
176
     1
 90
        0
176
     1
 62
    18
420
        0
176
     1
 90
       50
176
     1
 90
        3
176
     1
 62
     5
420
      255
176
     1
290
     0
176
     1
 90
       50
176
     1
 90
       50
176
     1
 90
       50
176
     1
290
     0
176
     1
 90
       50
176
     1
 62
   256
176
     0
 40
1.0
176
     0
 90
        2
176
     1
  1
strokes_ogs.tif
176
     1
290
     0
176
     1
 40
1.0
176
     1
 40
1.0
176
     1
1001
ACAD
1000
AcDbSavedByObjectVersion
1070
     0
  0
VISUALSTYLE
  5
34
102
{ACAD_REACTORS
330
2A
102
}
330
2A
100
AcDbVisualStyle
  2
Conceptual
 70
     9
177
     3
291
     0
 70
    58
 90
        3
176
     1
 90
        2
176
     1
 90
        0
176
     1
 90
        0
176
     1
 40
0.6
176
     1
 40
30.0
176
     1
 62
     7
420
 16777215
176
     1
 90
        2
176
     1
 90
        2
176
     1
 62
     7
176
     1
 62
   257
176
     1
 90
        1
176
     1
 90
        1
176
     1
 40
179.0
176
     1
 90
        8
176
     1
 62
     7
176
     1
 40
1.0
176
     1
 90
        1
176
     1
 90
        6
176
     1
 90
        2
176
     1
 62
     7
176
     1
 90
        3
176
     1
 90
        0
176
     1
 90
        0
176
     1
290
     0
176
     1
 90
        1
176
     1
 40
0.0
176
     1
 90
        0
176
     1
290
     0
176
     1
290
     1
176
     1
290
     1
176
     1
290
     0
176
     1
290
     0
176
     1
290
     0
176
     1
290
     0
176
     1
290
     0
176
     1
290
     0
176
     1
 90
       50
176
     1
 40
0.0
176
     1
 40
1.0
176
     1
 90
        0
176
     1
 62
    18
420
        0
176
     1
 90
       50
176
     1
 90
        3
176
     1
 62
     5
420
      255
176
     1
290
     0
176
     1
 90
       50
176
     1
 90
       50
176
     1
 90
       50
176
     1
290
     0
176
     1
 90
       50
176
     1
 62
   256
176
     0
 40
1.0
176
     0
 90
        2
176
     1
  1
strokes_ogs.tif
176
     1
290
     0
176
     1
 40
1.0
176
     1
 40
1.0
176
     1
1001
ACAD
1000
AcDbSavedByObjectVersion
1070
     0
  0
VISUALSTYLE
  5
35
102
{ACAD_REACTORS
330
2A
102
}
330
2A
100
AcDbVisualStyle
  2
Dim
 70
    11
177
     3
291
     1
 70
    58
 90
        2
176
     1
 90
        2
176
     1
 90
        0
176
     1
 90
        0
176
     1
 40
0.6
176
     1
 40
30.0
176
     1
 62
     7
420
 16777215
176
     1
 90
        1
176
     1
 90
        4
176
     1
 62
     7
176
     1
 62
   257
176
     1
 90
        1
176
     1
 90
        1
176
     1
 40
1.0
176
     1
 90
        8
176
     1
 62
     7
176
     1
 40
1.0
176
     1
 90
        1
176
     1
 90
        6
176
     1
 90
        2
176
     1
 62
     7
176
     1
 90
        5
176
     1
 90
        0
176
     1
 90
        0
176
     1
290
     0
176
     1
 90
        1
176
     1
 40
-50.0
176
     1
 90
        0
176
     1
290
     0
176
     1
290
     1
176
     1
290
     1
176
     1
290
     0
176
     1
290
     0
176
     1
290
     0
176
     1
290
     0
176
     1
290
     0
176
     1
290
     0
176
     1
 90
       50
176
     1
 40
0.0
176
     1
 40
1.0
176
     1
 90
        0
176
     1
 62
    18
420
        0
176
     1
 90
       50
176
     1
 90
        3
176
     1
 62
     5
420
      255
176
     1
290
     0
176
     1
 90
       50
176
     1
 90
       50
176
     1
 90
       50
176
     1
290
     0
176
     1
 90
       50
176
     1
 62
   256
176
     0
 40
1.0
176
     0
 90
        2
176
     1
  1
strokes_ogs.tif
176
     1
290
     0
176
     1
 40
1.0
176
     1
 40
1.0
176
     1
1001
ACAD
1000
AcDbSavedByObjectVersion
1070
     0
  0
VISUALSTYLE
  5
3D
102
{ACAD_REACTORS
330
2A
102
}
330
2A
100
AcDbVisualStyle
  2
EdgeColorOff
 70
    22
177
     3
291
     1
 70
    58
 90
        2
176
     0
 90
        2
176
     0
 90
        0
176
     0
 90
        0
176
     0
 40
0.6
176
     0
 40
30.0
176
     0
 62
     7
420
 16777215
176
     0
 90
        1
176
     0
 90
        4
176
     0
 62
     7
176
     0
 62
   257
176
     0
 90
        1
176
     0
 90
        1
176
     0
 40
1.0
176
     0
 90
        8
176
     2
 62
     7
176
     0
 40
1.0
176
     0
 90
        1
176
     0
 90
        6
176
     0
 90
        2
176
     0
 62
     7
176
     0
 90
        5
176
     0
 90
        0
176
     0
 90
        0
176
     0
290
     0
176
     0
 90
        1
176
     0
 40
0.0
176
     0
 90
        0
176
     0
290
     0
176
     0
290
     1
176
     0
290
     1
176
     0
290
     0
176
     0
290
     0
176
     0
290
     0
176
     0
290
     0
176
     0
290
     0
176
     0
290
     0
176
     0
 90
       50
176
     0
 40
0.0
176
     0
 40
1.0
176
     0
 90
        0
176
     0
 62
    18
420
        0
176
     0
 90
       50
176
     0
 90
        3
176
     0
 62
     5
420
      255
176
     0
290
     0
176
     0
 90
       50
176
     0
 90
       50
176
     0
 90
       50
176
     0
290
     0
176
     0
 90
       50
176
     0
 62
   256
176
     0
 40
1.0
176
     0
 90
        2
176
     0
  1
strokes_ogs.tif
176
     0
290
     0
176
     0
 40
1.0
176
     0
 40
1.0
176
     0
1001
ACAD
1000
AcDbSavedByObjectVersion
1070
     0
  0
VISUALSTYLE
  5
39
102
{ACAD_REACTORS
330
2A
102
}
330
2A
100
AcDbVisualStyle
  2
Facepattern
 70
    15
177
     3
291
     1
 70
    58
 90
        2
176
     1
 90
        2
176
     1
 90
        0
176
     1
 90
        0
176
     1
 40
0.6
176
     1
 40
30.0
176
     1
 62
     7
420
 16777215
176
     1
 90
        1
176
     1
 90
        4
176
     1
 62
     7
176
     1
 62
   257
176
     1
 90
        1
176
     1
 90
        1
176
     1
 40
1.0
176
     1
 90
        8
176
     1
 62
     7
176
     1
 40
1.0
176
     1
 90
        1
176
     1
 90
        6
176
     1
 90
        2
176
     1
 62
     7
176
     1
 90
        5
176
     1
 90
        0
176
     1
 90
        0
176
     1
290
     0
176
     1
 90
        1
176
     1
 40
0.0
176
     1
 90
        0
176
     1
290
     0
176
     1
290
     1
176
     1
290
     1
176
     1
290
     0
176
     1
290
     0
176
     1
290
     0
176
     1
290
     0
176
     1
290
     0
176
     1
290
     0
176
     1
 90
       50
176
     1
 40
0.0
176
     1
 40
1.0
176
     1
 90
        0
176
     1
 62
    18
420
        0
176
     1
 90
       50
176
     1
 90
        3
176
     1
 62
     5
420
      255
176
     1
290
     0
176
     1
 90
       50
176
     1
 90
       50
176
     1
 90
       50
176
     1
290
     0
176
     1
 90
       50
176
     1
 62
   256
176
     0
 40
1.0
176
     0
 90
        2
176
     1
  1
strokes_ogs.tif
176
     1
290
     0
176
     1
 40
1.0
176
     1
 40
1.0
176
     1
1001
ACAD
1000
AcDbSavedByObjectVersion
1070
     0
  0
VISUALSTYLE
  5
2B
102
{ACAD_REACTORS
330
2A
102
}
330
2A
100
AcDbVisualStyle
  2
Flat
 70
     0
177
     3
291
     1
 70
    58
 90
        2
176
     1
 90
        1
176
     1
 90
        1
176
     1
 90
        2
176
     1
 40
0.6
176
     1
 40
30.0
176
     1
 62
     7
420
 16777215
176
     1
 90
        0
176
     1
 90
        0
176
     1
 62
     7
176
     1
 62
   257
176
     1
 90
        1
176
     1
 90
        1
176
     1
 40
1.0
176
     1
 90
        8
176
     1
 62
     7
176
     1
 40
1.0
176
     1
 90
        1
176
     1
 90
        6
176
     1
 90
        2
176
     1
 62
     7
176
     1
 90
        5
176
     1
 90
        0
176
     1
 90
        0
176
     1
290
     0
176
     1
 90
       13
176
     1
 40
0.0
176
     1
 90
        0
176
     1
290
     0
176
     1
290
     1
176
     1
290
     1
176
     1
290
     0
176
     1
290
     0
176
     1
290
     0
176
     1
290
     0
176
     1
290
     0
176
     1
290
     0
176
     1
 90
       50
176
     1
 40
0.0
176
     1
 40
1.0
176
     1
 90
        0
176
     1
 62
    18
420
        0
176
     1
 90
       50
176
     1
 90
        3
176
     1
 62
     5
420
      255
176
     1
290
     0
176
     1
 90
       50
176
     1
 90
       50
176
     1
 90
       50
176
     1
290
     0
176
     1
 90
       50
176
     1
 62
   256
176
     0
 40
1.0
176
     0
 90
        2
176
     1
  1
strokes_ogs.tif
176
     1
290
     0
176
     1
 40
1.0
176
     1
 40
1.0
176
     1
1001
ACAD
1000
AcDbSavedByObjectVersion
1070
     0
  0
VISUALSTYLE
  5
2C
102
{ACAD_REACTORS
330
2A
102
}
330
2A
100
AcDbVisualStyle
  2
FlatWithEdges
 70
     1
177
     3
291
     1
 70
    58
 90
        2
176
     1
 90
        1
176
     1
 90
        1
176
     1
 90
        2
176
     1
 40
0.6
176
     1
 40
30.0
176
     1
 62
     7
420
 16777215
176
     1
 90
        1
176
     1
 90
        0
176
     1
 62
     7
176
     1
 62
   257
176
     1
 90
        1
176
     1
 90
        1
176
     1
 40
1.0
176
     1
 90
        0
176
     1
 62
   257
176
     1
 40
1.0
176
     1
 90
        1
176
     1
 90
        6
176
     1
 90
        2
176
     1
 62
     7
176
     1
 90
        5
176
     1
 90
        0
176
     1
 90
        0
176
     1
290
     0
176
     1
 90
       13
176
     1
 40
0.0
176
     1
 90
        0
176
     1
290
     0
176
     1
290
     1
176
     1
290
     1
176
     1
290
     0
176
     1
290
     0
176
     1
290
     0
176
     1
290
     0
176
     1
290
     0
176
     1
290
     0
176
     1
 90
       50
176
     1
 40
0.0
176
     1
 40
1.0
176
     1
 90
        0
176
     1
 62
    18
420
        0
176
     1
 90
       50
176
     1
 90
        3
176
     1
 62
     5
420
      255
176
     1
290
     0
176
     1
 90
       50
176
     1
 90
       50
176
     1
 90
       50
176
     1
290
     0
176
     1
 90
       50
176
     1
 62
   256
176
     0
 40
1.0
176
     0
 90
        2
176
     1
  1
strokes_ogs.tif
176
     1
290
     0
176
     1
 40
1.0
176
     1
 40
1.0
176
     1
1001
ACAD
1000
AcDbSavedByObjectVersion
1070
     0
  0
VISUALSTYLE
  5
2D
102
{ACAD_REACTORS
330
2A
102
}
330
2A
100
AcDbVisualStyle
  2
Gouraud
 70
     2
177
     3
291
     1
 70
    58
 90
        2
176
     1
 90
        2
176
     1
 90
        1
176
     1
 90
        2
176
     1
 40
0.6
176
     1
 40
30.0
176
     1
 62
     7
420
 16777215
176
     1
 90
        0
176
     1
 90
        0
176
     1
 62
     7
176
     1
 62
   257
176
     1
 90
        1
176
     1
 90
        1
176
     1
 40
1.0
176
     1
 90
        0
176
     1
 62
     7
176
     1
 40
1.0
176
     1
 90
        1
176
     1
 90
        6
176
     1
 90
        2
176
     1
 62
     7
176
     1
 90
        5
176
     1
 90
        0
176
     1
 90
        0
176
     1
290
     0
176
     1
 90
       13
176
     1
 40
0.0
176
     1
 90
        0
176
     1
290
     0
176
     1
290
     1
176
     1
290
     1
176
     1
290
     0
176
     1
290
     0
176
     1
290
     0
176
     1
290
     0
176
     1
290
     0
176
     1
290
     0
176
     1
 90
       50
176
     1
 40
0.0
176
     1
 40
1.0
176
     1
 90
        0
176
     1
 62
    18
420
        0
176
     1
 90
       50
176
     1
 90
        3
176
     1
 62
     5
420
      255
176
     1
290
     0
176
     1
 90
       50
176
     1
 90
       50
176
     1
 90
       50
176
     1
290
     0
176
     1
 90
       50
176
     1
 62
   256
176
     0
 40
1.0
176
     0
 90
        2
176
     1
  1
strokes_ogs.tif
176
     1
290
     0
176
     1
 40
1.0
176
     1
 40
1.0
176
     1
1001
ACAD
1000
AcDbSavedByObjectVersion
1070
     0
  0
VISUALSTYLE
  5
2E
102
{ACAD_REACTORS
330
2A
102
}
330
2A
100
AcDbVisualStyle
  2
GouraudWithEdges
 70
     3
177
     3
291
     1
 70
    58
 90
        2
176
     1
 90
        2
176
     1
 90
        1
176
     1
 90
        2
176
     1
 40
0.6
176
     1
 40
30.0
176
     1
 62
     7
420
 16777215
176
     1
 90
        1
176
     1
 90
        0
176
     1
 62
     7
176
     1
 62
   257
176
     1
 90
        1
176
     1
 90
        1
176
     1
 40
1.0
176
     1
 90
        0
176
     1
 62
   257
176
     1
 40
1.0
176
     1
 90
        1
176
     1
 90
        6
176
     1
 90
        2
176
     1
 62
     7
176
     1
 90
        5
176
     1
 90
        0
176
     1
 90
        0
176
     1
290
     0
176
     1
 90
       13
176
     1
 40
0.0
176
     1
 90
        0
176
     1
290
     0
176
     1
290
     1
176
     1
290
     1
176
     1
290
     0
176
     1
290
     0
176
     1
290
     0
176
     1
290
     0
176
     1
290
     0
176
     1
290
     0
176
     1
 90
       50
176
     1
 40
0.0
176
     1
 40
1.0
176
     1
 90
        0
176
     1
 62
    18
420
        0
176
     1
 90
       50
176
     1
 90
        3
176
     1
 62
     5
420
      255
176
     1
290
     0
176
     1
 90
       50
176
     1
 90
       50
176
     1
 90
       50
176
     1
290
     0
176
     1
 90
       50
176
     1
 62
   256
176
     0
 40
1.0
176
     0
 90
        2
176
     1
  1
strokes_ogs.tif
176
     1
290
     0
176
     1
 40
1.0
176
     1
 40
1.0
176
     1
1001
ACAD
1000
AcDbSavedByObjectVersion
1070
     0
  0
VISUALSTYLE
  5
31
102
{ACAD_REACTORS
330
2A
102
}
330
2A
100
AcDbVisualStyle
  2
Hidden
 70
     6
177
     3
291
     0
 70
    58
 90
        1
176
     1
 90
        2
176
     1
 90
        2
176
     1
 90
        0
176
     1
 40
0.6
176
     1
 40
30.0
176
     1
 62
     7
420
 16777215
176
     1
 90
        2
176
     1
 90
        2
176
     1
 62
     7
176
     1
 62
   257
176
     1
 90
        2
176
     1
 90
        1
176
     1
 40
40.0
176
     1
 90
        0
176
     1
 62
   257
176
     1
 40
1.0
176
     1
 90
        1
176
     1
 90
        6
176
     1
 90
        2
176
     1
 62
     7
176
     1
 90
        3
176
     1
 90
        0
176
     1
 90
        0
176
     1
290
     0
176
     1
 90
        1
176
     1
 40
0.0
176
     1
 90
        0
176
     1
290
     0
176
     1
290
     1
176
     1
290
     1
176
     1
290
     0
176
     1
290
     0
176
     1
290
     0
176
     1
290
     0
176
     1
290
     0
176
     1
290
     0
176
     1
 90
       50
176
     1
 40
0.0
176
     1
 40
1.0
176
     1
 90
        0
176
     1
 62
    18
420
        0
176
     1
 90
       50
176
     1
 90
        3
176
     1
 62
     5
420
      255
176
     1
290
     0
176
     1
 90
       50
176
     1
 90
       50
176
     1
 90
       50
176
     1
290
     0
176
     1
 90
       50
176
     1
 62
   256
176
     0
 40
1.0
176
     0
 90
        2
176
     1
  1
strokes_ogs.tif
176
     1
290
     0
176
     1
 40
1.0
176
     1
 40
1.0
176
     1
1001
ACAD
1000
AcDbSavedByObjectVersion
1070
     0
  0
VISUALSTYLE
  5
3B
102
{ACAD_REACTORS
330
2A
102
}
330
2A
100
AcDbVisualStyle
  2
JitterOff
 70
    20
177
     3
291
     1
 70
    58
 90
        2
176
     0
 90
        2
176
     0
 90
        0
176
     0
 90
        0
176
     0
 40
0.6
176
     0
 40
30.0
176
     0
 62
     7
420
 16777215
176
     0
 90
        1
176
     0
 90
        4
176
     0
 62
     7
176
     0
 62
   257
176
     0
 90
        1
176
     0
 90
        1
176
     0
 40
1.0
176
     0
 90
       10
176
     2
 62
     7
176
     0
 40
1.0
176
     0
 90
        1
176
     0
 90
        6
176
     0
 90
        2
176
     0
 62
     7
176
     0
 90
        5
176
     0
 90
        0
176
     0
 90
        0
176
     0
290
     0
176
     0
 90
        1
176
     0
 40
0.0
176
     0
 90
        0
176
     0
290
     0
176
     0
290
     1
176
     0
290
     1
176
     0
290
     0
176
     0
290
     0
176
     0
290
     0
176
     0
290
     0
176
     0
290
     0
176
     0
290
     0
176
     0
 90
       50
176
     0
 40
0.0
176
     0
 40
1.0
176
     0
 90
        0
176
     0
 62
    18
420
        0
176
     0
 90
       50
176
     0
 90
        3
176
     0
 62
     5
420
      255
176
     0
290
     0
176
     0
 90
       50
176
     0
 90
       50
176
     0
 90
       50
176
     0
290
     0
176
     0
 90
       50
176
     0
 62
   256
176
     0
 40
1.0
176
     0
 90
        2
176
     0
  1
strokes_ogs.tif
176
     0
290
     0
176
     0
 40
1.0
176
     0
 40
1.0
176
     0
1001
ACAD
1000
AcDbSavedByObjectVersion
1070
     0
  0
VISUALSTYLE
  5
38
102
{ACAD_REACTORS
330
2A
102
}
330
2A
100
AcDbVisualStyle
  2
Linepattern
 70
    14
177
     3
291
     1
 70
    58
 90
        2
176
     1
 90
        2
176
     1
 90
        0
176
     1
 90
        0
176
     1
 40
0.6
176
     1
 40
30.0
176
     1
 62
     7
420
 16777215
176
     1
 90
        1
176
     1
 90
        4
176
     1
 62
     7
176
     1
 62
   257
176
     1
 90
        7
176
     1
 90
        7
176
     1
 40
1.0
176
     1
 90
        8
176
     1
 62
     7
176
     1
 40
1.0
176
     1
 90
        1
176
     1
 90
        6
176
     1
 90
        2
176
     1
 62
     7
176
     1
 90
        5
176
     1
 90
        0
176
     1
 90
        0
176
     1
290
     0
176
     1
 90
        1
176
     1
 40
0.0
176
     1
 90
        0
176
     1
290
     0
176
     1
290
     1
176
     1
290
     1
176
     1
290
     0
176
     1
290
     0
176
     1
290
     0
176
     1
290
     0
176
     1
290
     0
176
     1
290
     0
176
     1
 90
       50
176
     1
 40
0.0
176
     1
 40
1.0
176
     1
 90
        0
176
     1
 62
    18
420
        0
176
     1
 90
       50
176
     1
 90
        3
176
     1
 62
     5
420
      255
176
     1
290
     0
176
     1
 90
       50
176
     1
 90
       50
176
     1
 90
       50
176
     1
290
     0
176
     1
 90
       50
176
     1
 62
   256
176
     0
 40
1.0
176
     0
 90
        2
176
     1
  1
strokes_ogs.tif
176
     1
290
     0
176
     1
 40
1.0
176
     1
 40
1.0
176
     1
1001
ACAD
1000
AcDbSavedByObjectVersion
1070
     0
  0
VISUALSTYLE
  5
3C
102
{ACAD_REACTORS
330
2A
102
}
330
2A
100
AcDbVisualStyle
  2
OverhangOff
 70
    21
177
     3
291
     1
 70
    58
 90
        2
176
     0
 90
        2
176
     0
 90
        0
176
     0
 90
        0
176
     0
 40
0.6
176
     0
 40
30.0
176
     0
 62
     7
420
 16777215
176
     0
 90
        1
176
     0
 90
        4
176
     0
 62
     7
176
     0
 62
   257
176
     0
 90
        1
176
     0
 90
        1
176
     0
 40
1.0
176
     0
 90
        9
176
     2
 62
     7
176
     0
 40
1.0
176
     0
 90
        1
176
     0
 90
        6
176
     0
 90
        2
176
     0
 62
     7
176
     0
 90
        5
176
     0
 90
        0
176
     0
 90
        0
176
     0
290
     0
176
     0
 90
        1
176
     0
 40
0.0
176
     0
 90
        0
176
     0
290
     0
176
     0
290
     1
176
     0
290
     1
176
     0
290
     0
176
     0
290
     0
176
     0
290
     0
176
     0
290
     0
176
     0
290
     0
176
     0
290
     0
176
     0
 90
       50
176
     0
 40
0.0
176
     0
 40
1.0
176
     0
 90
        0
176
     0
 62
    18
420
        0
176
     0
 90
       50
176
     0
 90
        3
176
     0
 62
     5
420
      255
176
     0
290
     0
176
     0
 90
       50
176
     0
 90
       50
176
     0
 90
       50
176
     0
290
     0
176
     0
 90
       50
176
     0
 62
   256
176
     0
 40
1.0
176
     0
 90
        2
176
     0
  1
strokes_ogs.tif
176
     0
290
     0
176
     0
 40
1.0
176
     0
 40
1.0
176
     0
1001
ACAD
1000
AcDbSavedByObjectVersion
1070
     0
  0
VISUALSTYLE
  5
33
102
{ACAD_REACTORS
330
2A
102
}
330
2A
100
AcDbVisualStyle
  2
Realistic
 70
     8
177
     3
291
     0
 70
    58
 90
        2
176
     1
 90
        3
176
     1
 90
        0
176
     1
 90
        2
176
     1
 40
0.6
176
     1
 40
30.0
176
     1
 62
     7
420
 16777215
176
     1
 90
        0
176
     1
 90
        0
176
     1
 62
     7
176
     1
 62
   257
176
     1
 90
        1
176
     1
 90
        1
176
     1
 40
1.0
176
     1
 90
        8
176
     1
 62
   257
176
     1
 40
1.0
176
     1
 90
        1
176
     1
 90
        6
176
     1
 90
        2
176
     1
 62
     7
176
     1
 90
        3
176
     1
 90
        0
176
     1
 90
        0
176
     1
290
     0
176
     1
 90
       13
176
     1
 40
0.0
176
     1
 90
        0
176
     1
290
     0
176
     1
290
     1
176
     1
290
     1
176
     1
290
     0
176
     1
290
     0
176
     1
290
     0
176
     1
290
     0
176
     1
290
     0
176
     1
290
     0
176
     1
 90
       50
176
     1
 40
0.0
176
     1
 40
1.0
176
     1
 90
        0
176
     1
 62
    18
420
        0
176
     1
 90
       50
176
     1
 90
        3
176
     1
 62
     5
420
      255
176
     1
290
     0
176
     1
 90
       50
176
     1
 90
       50
176
     1
 90
       50
176
     1
290
     0
176
     1
 90
       50
176
     1
 62
   256
176
     0
 40
1.0
176
     0
 90
        2
176
     1
  1
strokes_ogs.tif
176
     1
290
     0
176
     1
 40
1.0
176
     1
 40
1.0
176
     1
1001
ACAD
1000
AcDbSavedByObjectVersion
1070
     0
  0
VISUALSTYLE
  5
42
102
{ACAD_REACTORS
330
2A
102
}
330
2A
100
AcDbVisualStyle
  2
Shaded
 70
    27
177
     3
291
     0
 70
    58
 90
        2
176
     1
 90
        2
176
     1
 90
        1
176
     1
 90
        2
176
     1
 40
0.6
176
     1
 40
30.0
176
     1
 62
     7
420
 16777215
176
     1
 90
        0
176
     1
 90
        4
176
     1
 62
     7
176
     1
 62
   257
176
     1
 90
        1
176
     1
 90
        1
176
     1
 40
1.0
176
     1
 90
        8
176
     1
 62
   257
176
     1
 40
1.0
176
     1
 90
        1
176
     1
 90
        6
176
     1
 90
        2
176
     1
 62
     8
420
  7895160
176
     1
 90
        3
176
     1
 90
        0
176
     1
 90
        0
176
     1
290
     0
176
     1
 90
        5
176
     1
 40
0.0
176
     1
 90
        0
176
     1
290
     0
176
     1
290
     1
176
     1
290
     1
176
     1
290
     0
176
     1
290
     0
176
     1
290
     0
176
     1
290
     0
176
     1
290
     0
176
     1
290
     0
176
     1
 90
       50
176
     1
 40
0.0
176
     1
 40
1.0
176
     1
 90
        0
176
     1
 62
    18
420
        0
176
     1
 90
       50
176
     1
 90
        3
176
     1
 62
     5
420
      255
176
     1
290
     0
176
     1
 90
       50
176
     1
 90
       50
176
     1
 90
       50
176
     1
290
     0
176
     1
 90
       50
176
     1
 62
   256
176
     0
 40
1.0
176
     0
 90
        2
176
     1
  1
strokes_ogs.tif
176
     1
290
     0
176
     1
 40
1.0
176
     1
 40
1.0
176
     1
1001
ACAD
1000
AcDbSavedByObjectVersion
1070
     0
  0
VISUALSTYLE
  5
41
102
{ACAD_REACTORS
330
2A
102
}
330
2A
100
AcDbVisualStyle
  2
Shaded with edges
 70
    26
177
     3
291
     0
 70
    58
 90
        2
176
     1
 90
        2
176
     1
 90
        1
176
     1
 90
        2
176
     1
 40
0.6
176
     1
 40
30.0
176
     1
 62
     7
420
 16777215
176
     1
 90
        1
176
     1
 90
        2
176
     1
 62
     7
176
     1
 62
   257
176
     1
 90
        2
176
     1
 90
        1
176
     1
 40
1.0
176
     1
 90
        8
176
     1
 62
   257
176
     1
 40
1.0
176
     1
 90
        1
176
     1
 90
        6
176
     1
 90
        2
176
     1
 62
     7
176
     1
 90
        3
176
     1
 90
        0
176
     1
 90
        0
176
     1
290
     0
176
     1
 90
        5
176
     1
 40
0.0
176
     1
 90
        0
176
     1
290
     0
176
     1
290
     1
176
     1
290
     1
176
     1
290
     0
176
     1
290
     0
176
     1
290
     0
176
     1
290
     0
176
     1
290
     0
176
     1
290
     0
176
     1
 90
       50
176
     1
 40
0.0
176
     1
 40
1.0
176
     1
 90
        0
176
     1
 62
    18
420
        0
176
     1
 90
       50
176
     1
 90
        3
176
     1
 62
     5
420
      255
176
     1
290
     0
176
     1
 90
       50
176
     1
 90
       50
176
     1
 90
       50
176
     1
290
     0
176
     1
 90
       50
176
     1
 62
   256
176
     0
 40
1.0
176
     0
 90
        2
176
     1
  1
strokes_ogs.tif
176
     1
290
     0
176
     1
 40
1.0
176
     1
 40
1.0
176
     1
1001
ACAD
1000
AcDbSavedByObjectVersion
1070
     0
  0
VISUALSTYLE
  5
3E
102
{ACAD_REACTORS
330
2A
102
}
330
2A
100
AcDbVisualStyle
  2
Shades of Gray
 70
    23
177
     3
291
     0
 70
    58
 90
        2
176
     1
 90
        2
176
     1
 90
        3
176
     1
 90
        0
176
     1
 40
0.6
176
     1
 40
30.0
176
     1
 62
     7
420
 16777215
176
     1
 90
        2
176
     1
 90
        2
176
     1
 62
     7
176
     1
 62
     7
176
     1
 90
        1
176
     1
 90
        1
176
     1
 40
40.0
176
     1
 90
        8
176
     1
 62
     7
176
     1
 40
1.0
176
     1
 90
        1
176
     1
 90
        6
176
     1
 90
        2
176
     1
 62
     7
176
     1
 90
        3
176
     1
 90
        0
176
     1
 90
        0
176
     1
290
     0
176
     1
 90
        1
176
     1
 40
0.0
176
     1
 90
        0
176
     1
290
     0
176
     1
290
     1
176
     1
290
     1
176
     1
290
     0
176
     1
290
     0
176
     1
290
     0
176
     1
290
     0
176
     1
290
     0
176
     1
290
     0
176
     1
 90
       50
176
     1
 40
0.0
176
     1
 40
1.0
176
     1
 90
        0
176
     1
 62
    18
420
        0
176
     1
 90
       50
176
     1
 90
        3
176
     1
 62
     5
420
      255
176
     1
290
     0
176
     1
 90
       50
176
     1
 90
       50
176
     1
 90
       50
176
     1
290
     0
176
     1
 90
       50
176
     1
 62
   256
176
     0
 40
1.0
176
     0
 90
        2
176
     1
  1
strokes_ogs.tif
176
     1
290
     0
176
     1
 40
1.0
176
     1
 40
1.0
176
     1
1001
ACAD
1000
AcDbSavedByObjectVersion
1070
     0
  0
VISUALSTYLE
  5
3F
102
{ACAD_REACTORS
330
2A
102
}
330
2A
100
AcDbVisualStyle
  2
Sketchy
 70
    24
177
     3
291
     0
 70
    58
 90
        1
176
     1
 90
        2
176
     1
 90
        2
176
     1
 90
        0
176
     1
 40
0.6
176
     1
 40
30.0
176
     1
 62
     7
420
 16777215
176
     1
 90
        2
176
     1
 90
        2
176
     1
 62
     7
176
     1
 62
     7
176
     1
 90
        1
176
     1
 90
        1
176
     1
 40
40.0
176
     1
 90
       11
176
     1
 62
     7
176
     1
 40
1.0
176
     1
 90
        1
176
     1
 90
        6
176
     1
 90
        2
176
     1
 62
     7
176
     1
 90
        6
176
     1
 90
        0
176
     1
 90
        0
176
     1
290
     0
176
     1
 90
        1
176
     1
 40
0.0
176
     1
 90
        0
176
     1
290
     0
176
     1
290
     1
176
     1
290
     1
176
     1
290
     0
176
     1
290
     0
176
     1
290
     0
176
     1
290
     0
176
     1
290
     0
176
     1
290
     0
176
     1
 90
       50
176
     1
 40
0.0
176
     1
 40
1.0
176
     1
 90
        0
176
     1
 62
    18
420
        0
176
     1
 90
       50
176
     1
 90
        3
176
     1
 62
     5
420
      255
176
     1
290
     0
176
     1
 90
       50
176
     1
 90
       50
176
     1
 90
       50
176
     1
290
     0
176
     1
 90
       50
176
     1
 62
   256
176
     0
 40
1.0
176
     0
 90
        2
176
     1
  1
strokes_ogs.tif
176
     1
290
     0
176
     1
 40
1.0
176
     1
 40
1.0
176
     1
1001
ACAD
1000
AcDbSavedByObjectVersion
1070
     0
  0
VISUALSTYLE
  5
37
102
{ACAD_REACTORS
330
2A
102
}
330
2A
100
AcDbVisualStyle
  2
Thicken
 70
    13
177
     3
291
     1
 70
    58
 90
        2
176
     1
 90
        2
176
     1
 90
        0
176
     1
 90
        0
176
     1
 40
0.6
176
     1
 40
30.0
176
     1
 62
     7
420
 16777215
176
     1
 90
        1
176
     1
 90
        4
176
     1
 62
     7
176
     1
 62
   257
176
     1
 90
        1
176
     1
 90
        1
176
     1
 40
1.0
176
     1
 90
       12
176
     1
 62
     7
176
     1
 40
1.0
176
     1
 90
        1
176
     1
 90
        6
176
     1
 90
        2
176
     1
 62
     7
176
     1
 90
        5
176
     1
 90
        0
176
     1
 90
        0
176
     1
290
     0
176
     1
 90
        1
176
     1
 40
0.0
176
     1
 90
        0
176
     1
290
     0
176
     1
290
     1
176
     1
290
     1
176
     1
290
     0
176
     1
290
     0
176
     1
290
     0
176
     1
290
     0
176
     1
290
     0
176
     1
290
     0
176
     1
 90
       50
176
     1
 40
0.0
176
     1
 40
1.0
176
     1
 90
        0
176
     1
 62
    18
420
        0
176
     1
 90
       50
176
     1
 90
        3
176
     1
 62
     5
420
      255
176
     1
290
     0
176
     1
 90
       50
176
     1
 90
       50
176
     1
 90
       50
176
     1
290
     0
176
     1
 90
       50
176
     1
 62
   256
176
     0
 40
1.0
176
     0
 90
        2
176
     1
  1
strokes_ogs.tif
176
     1
290
     0
176
     1
 40
1.0
176
     1
 40
1.0
176
     1
1001
ACAD
1000
AcDbSavedByObjectVersion
1070
     0
  0
VISUALSTYLE
  5
30
102
{ACAD_REACTORS
330
2A
102
}
330
2A
100
AcDbVisualStyle
  2
Wireframe
 70
     5
177
     3
291
     0
 70
    58
 90
        0
176
     1
 90
        2
176
     1
 90
        0
176
     1
 90
        0
176
     1
 40
0.6
176
     1
 40
30.0
176
     1
 62
     7
420
 16777215
176
     1
 90
        1
176
     1
 90
        4
176
     1
 62
     7
176
     1
 62
   257
176
     1
 90
        1
176
     1
 90
        1
176
     1
 40
1.0
176
     1
 90
        0
176
     1
 62
   257
176
     1
 40
1.0
176
     1
 90
        1
176
     1
 90
        6
176
     1
 90
        2
176
     1
 62
     7
176
     1
 90
        3
176
     1
 90
        0
176
     1
 90
        0
176
     1
290
     0
176
     1
 90
        1
176
     1
 40
0.0
176
     1
 90
        0
176
     1
290
     0
176
     1
290
     1
176
     1
290
     1
176
     1
290
     0
176
     1
290
     0
176
     1
290
     0
176
     1
290
     0
176
     1
290
     0
176
     1
290
     0
176
     1
 90
       50
176
     1
 40
0.0
176
     1
 40
1.0
176
     1
 90
        0
176
     1
 62
    18
420
        0
176
     1
 90
       50
176
     1
 90
        3
176
     1
 62
     5
420
      255
176
     1
290
     0
176
     1
 90
       50
176
     1
 90
       50
176
     1
 90
       50
176
     1
290
     0
176
     1
 90
       50
176
     1
 62
   256
176
     0
 40
1.0
176
     0
 90
        2
176
     1
  1
strokes_ogs.tif
176
     1
290
     0
176
     1
 40
1.0
176
     1
 40
1.0
176
     1
1001
ACAD
1000
AcDbSavedByObjectVersion
1070
     0
  0
VISUALSTYLE
  5
40
102
{ACAD_REACTORS
330
2A
102
}
330
2A
100
AcDbVisualStyle
  2
X-Ray
 70
    25
177
     3
291
     0
 70
    58
 90
        2
176
     1
 90
        2
176
     1
 90
        1
176
     1
 90
        1
176
     1
 40
0.5
176
     1
 40
30.0
176
     1
 62
     7
420
 16777215
176
     1
 90
        1
176
     1
 90
        0
176
     1
 62
     7
176
     1
 62
   257
176
     1
 90
        1
176
     1
 90
        1
176
     1
 40
1.0
176
     1
 90
        8
176
     1
 62
     7
176
     1
 40
1.0
176
     1
 90
        1
176
     1
 90
        6
176
     1
 90
        2
176
     1
 62
     7
176
     1
 90
        3
176
     1
 90
        0
176
     1
 90
        0
176
     1
290
     0
176
     1
 90
       13
176
     1
 40
0.0
176
     1
 90
        0
176
     1
290
     0
176
     1
290
     1
176
     1
290
     1
176
     1
290
     0
176
     1
290
     0
176
     1
290
     0
176
     1
290
     0
176
     1
290
     0
176
     1
290
     0
176
     1
 90
       50
176
     1
 40
0.0
176
     1
 40
1.0
176
     1
 90
        0
176
     1
 62
    18
420
        0
176
     1
 90
       50
176
     1
 90
        3
176
     1
 62
     5
420
      255
176
     1
290
     0
176
     1
 90
       50
176
     1
 90
       50
176
     1
 90
       50
176
     1
290
     0
176
     1
 90
       50
176
     1
 62
   256
176
     0
 40
1.0
176
     0
 90
        2
176
     1
  1
strokes_ogs.tif
176
     1
290
     0
176
     1
 40
1.0
176
     1
 40
1.0
176
     1
1001
ACAD
1000
AcDbSavedByObjectVersion
1070
     0
  0
DICTIONARYVAR
  5
38E
102
{ACAD_REACTORS
330
38D
102
}
330
38D
100
DictionaryVariables
280
     0
  1
1:1
  0
DICTIONARYVAR
  5
390
102
{ACAD_REACTORS
330
38D
102
}
330
38D
100
DictionaryVariables
280
     0
  1
STANDARD
  0
DICTIONARYVAR
  5
38F
102
{ACAD_REACTORS
330
38D
102
}
330
38D
100
DictionaryVariables
280
     0
  1
STANDARD
  0
DICTIONARYVAR
  5
402
102
{ACAD_REACTORS
330
38D
102
}
330
38D
100
DictionaryVariables
280
     0
  1
Imperial24
  0
DICTIONARYVAR
  5
403
102
{ACAD_REACTORS
330
38D
102
}
330
38D
100
DictionaryVariables
280
     0
  1
Imperial24
  0
DICTIONARYVAR
  5
391
102
{ACAD_REACTORS
330
38D
102
}
330
38D
100
DictionaryVariables
280
     0
  1
0
  0
DICTIONARY
  5
442
102
{ACAD_REACTORS
330
440
102
}
330
440
100
AcDbDictionary
281
     1
  0
DICTIONARY
  5
441
102
{ACAD_REACTORS
330
440
102
}
330
440
100
AcDbDictionary
281
     1
  3
2228674441264
350
43B
  3
2228674441280
350
43C
  3
2228674441296
350
43D
  3
2228674441312
350
43E
  3
2228674441328
350
43F
  0
XRECORD
  5
38C
102
{ACAD_REACTORS
330
38B
102
}
330
38B
100
AcDbXrecord
280
     1
1000
このDWGファイルはARCHICAD(TM)®で作成されました。
  0
SPATIAL_FILTER
  5
382
102
{ACAD_REACTORS
330
381
102
}
330
381
100
AcDbFilter
100
AcDbSpatialFilter
 70
     4
 10
280.0
 20
80.00000000000001
 10
360.0
 20
80.00000000000001
 10
360.0
 20
230.0
 10
280.0
 20
230.0
210
0.0
220
0.0
230
1.0
 11
0.0
 21
0.0
 31
0.0
 71
     1
 72
     0
 73
     0
 40
1.0
 40
0.0
 40
0.0
 40
0.0
 40
0.0
 40
1.0
 40
0.0
 40
0.0
 40
0.0
 40
0.0
 40
1.0
 40
0.0
 40
1.0
 40
0.0
 40
0.0
 40
0.0
 40
0.0
 40
1.0
 40
0.0
 40
0.0
 40
0.0
 40
0.0
 40
1.0
 40
0.0
  0
DICTIONARY
  5
445
330
397
100
AcDbDictionary
280
     1
281
     1
  3
ACAD_XREC_ROUNDTRIP
360
446
  0
XRECORD
  5
44A
102
{ACAD_REACTORS
330
448
102
}
330
448
100
AcDbXrecord
280
     1
102
ACAD_MENTALRAY_SETTING_RT
330
3B0
 70
     1
  0
XRECORD
  5
449
102
{ACAD_REACTORS
330
448
102
}
330
448
100
AcDbXrecord
280
     1
 70
     2
 71
     3
 72
     0
  0
DICTIONARY
  5
443
330
396
100
AcDbDictionary
280
     1
281
     1
  3
ACAD_XREC_ROUNDTRIP
360
444
  0
DICTIONARY
  5
404
330
6A
100
AcDbDictionary
280
     1
281
     1
  3
ACAD_ROUNDTRIP_2008_TABLESTYLE_CELLSTYLEMAP
360
405
  0
XRECORD
  5
43B
102
{ACAD_REACTORS
330
441
102
}
330
441
100
AcDbXrecord
280
     1
  1
AcDb_Thumbnail_Schema
102
{ATTRRECORD
341
43C
  2
AcDbDs::TreatedAsObjectData
280
     1
291
     1
102
ATTRRECORD}
102
{ATTRRECORD
341
43D
  2
AcDbDs::Legacy
280
     1
291
     1
102
ATTRRECORD}
  2
AcDbDs::ID
280
    10
 91
        8
102
{ATTRRECORD
341
43E
  2
AcDs:Indexable
280
     1
291
     1
102
ATTRRECORD}
102
{ATTRRECORD
341
43F
  2
AcDbDs::HandleAttribute
280
     7
282
     1
102
ATTRRECORD}
  2
Thumbnail_Data
280
    15
 91
        0
  0
XRECORD
  5
43C
102
{ACAD_REACTORS
330
441
102
}
330
441
100
AcDbXrecord
280
     1
  1
AcDbDs::TreatedAsObjectDataSchema
  2
AcDbDs::TreatedAsObjectData
280
     1
 91
        0
  0
XRECORD
  5
43D
102
{ACAD_REACTORS
330
441
102
}
330
441
100
AcDbXrecord
280
     1
  1
AcDbDs::LegacySchema
  2
AcDbDs::Legacy
280
     1
 91
        0
  0
XRECORD
  5
43E
102
{ACAD_REACTORS
330
441
102
}
330
441
100
AcDbXrecord
280
     1
  1
AcDbDs::IndexedPropertySchema
  2
AcDs:Indexable
280
     1
 91
        0
  0
XRECORD
  5
43F
102
{ACAD_REACTORS
330
441
102
}
330
441
100
AcDbXrecord
280
     1
  1
AcDbDs::HandleAttributeSchema
  2
AcDbDs::HandleAttribute
280
     7
 91
        1
284
     1
  0
XRECORD
  5
446
102
{ACAD_REACTORS
330
445
102
}
330
445
100
AcDbXrecord
280
     1
102
DISPLAYNAME
  1
Imperial24
102
FLAGS
 90
        0
  0
XRECORD
  5
444
102
{ACAD_REACTORS
330
443
102
}
330
443
100
AcDbXrecord
280
     1
102
DISPLAYNAME
  1
Imperial24
102
FLAGS
 90
        0
  0
CELLSTYLEMAP
  5
405
102
{ACAD_REACTORS
330
404
102
}
330
404
100
AcDbCellStyleMap
 90
        3
300
CELLSTYLE
  1
TABLEFORMAT_BEGIN
 90
        5
170
     1
 91
        0
 92
    32768
 62
   257
 93
        1
300
CONTENTFORMAT
  1
CONTENTFORMAT_BEGIN
 90
        0
 91
        0
 92
        4
 93
        0
300

 40
0.0
140
1.0
 94
        5
 62
     0
340
11
144
0.25
309
CONTENTFORMAT_END
171
     1
301
MARGIN
  1
CELLMARGIN_BEGIN
 40
0.06
 40
0.06
 40
0.06
 40
0.06
 40
0.06
 40
0.06
309
CELLMARGIN_END
 94
        6
 95
        1
302
GRIDFORMAT
  1
GRIDFORMAT_BEGIN
 90
        0
 91
        1
 62
     0
 92
       -2
340
14
 93
        0
 40
0.045
309
GRIDFORMAT_END
 95
        2
302
GRIDFORMAT
  1
GRIDFORMAT_BEGIN
 90
        0
 91
        1
 62
     0
 92
       -2
340
14
 93
        0
 40
0.045
309
GRIDFORMAT_END
 95
        4
302
GRIDFORMAT
  1
GRIDFORMAT_BEGIN
 90
        0
 91
        1
 62
     0
 92
       -2
340
14
 93
        0
 40
0.045
309
GRIDFORMAT_END
 95
        8
302
GRIDFORMAT
  1
GRIDFORMAT_BEGIN
 90
        0
 91
        1
 62
     0
 92
       -2
340
14
 93
        0
 40
0.045
309
GRIDFORMAT_END
 95
       16
302
GRIDFORMAT
  1
GRIDFORMAT_BEGIN
 90
        0
 91
        1
 62
     0
 92
       -2
340
14
 93
        0
 40
0.045
309
GRIDFORMAT_END
 95
       32
302
GRIDFORMAT
  1
GRIDFORMAT_BEGIN
 90
        0
 91
        1
 62
     0
 92
       -2
340
14
 93
        0
 40
0.045
309
GRIDFORMAT_END
309
TABLEFORMAT_END
  1
CELLSTYLE_BEGIN
 90
        1
 91
        1
300
_TITLE
309
CELLSTYLE_END
300
CELLSTYLE
  1
TABLEFORMAT_BEGIN
 90
        5
170
     1
 91
        0
 92
        0
 62
   257
 93
        1
300
CONTENTFORMAT
  1
CONTENTFORMAT_BEGIN
 90
        0
 91
        0
 92
        4
 93
        0
300

 40
0.0
140
1.0
 94
        5
 62
     0
340
11
144
0.18
309
CONTENTFORMAT_END
171
     1
301
MARGIN
  1
CELLMARGIN_BEGIN
 40
0.06
 40
0.06
 40
0.06
 40
0.06
 40
0.06
 40
0.06
309
CELLMARGIN_END
 94
        6
 95
        1
302
GRIDFORMAT
  1
GRIDFORMAT_BEGIN
 90
        0
 91
        1
 62
     0
 92
       -2
340
14
 93
        0
 40
0.045
309
GRIDFORMAT_END
 95
        2
302
GRIDFORMAT
  1
GRIDFORMAT_BEGIN
 90
        0
 91
        1
 62
     0
 92
       -2
340
14
 93
        0
 40
0.045
309
GRIDFORMAT_END
 95
        4
302
GRIDFORMAT
  1
GRIDFORMAT_BEGIN
 90
        0
 91
        1
 62
     0
 92
       -2
340
14
 93
        0
 40
0.045
309
GRIDFORMAT_END
 95
        8
302
GRIDFORMAT
  1
GRIDFORMAT_BEGIN
 90
        0
 91
        1
 62
     0
 92
       -2
340
14
 93
        0
 40
0.045
309
GRIDFORMAT_END
 95
       16
302
GRIDFORMAT
  1
GRIDFORMAT_BEGIN
 90
        0
 91
        1
 62
     0
 92
       -2
340
14
 93
        0
 40
0.045
309
GRIDFORMAT_END
 95
       32
302
GRIDFORMAT
  1
GRIDFORMAT_BEGIN
 90
        0
 91
        1
 62
     0
 92
       -2
340
14
 93
        0
 40
0.045
309
GRIDFORMAT_END
309
TABLEFORMAT_END
  1
CELLSTYLE_BEGIN
 90
        2
 91
        1
300
_HEADER
309
CELLSTYLE_END
300
CELLSTYLE
  1
TABLEFORMAT_BEGIN
 90
        5
170
     1
 91
        0
 92
        0
 62
   257
 93
        1
300
CONTENTFORMAT
  1
CONTENTFORMAT_BEGIN
 90
        0
 91
        0
 92
        4
 93
        0
300

 40
0.0
140
1.0
 94
        2
 62
     0
340
11
144
0.18
309
CONTENTFORMAT_END
171
     1
301
MARGIN
  1
CELLMARGIN_BEGIN
 40
0.06
 40
0.06
 40
0.06
 40
0.06
 40
0.06
 40
0.06
309
CELLMARGIN_END
 94
        6
 95
        1
302
GRIDFORMAT
  1
GRIDFORMAT_BEGIN
 90
        0
 91
        1
 62
     0
 92
       -2
340
14
 93
        0
 40
0.045
309
GRIDFORMAT_END
 95
        2
302
GRIDFORMAT
  1
GRIDFORMAT_BEGIN
 90
        0
 91
        1
 62
     0
 92
       -2
340
14
 93
        0
 40
0.045
309
GRIDFORMAT_END
 95
        4
302
GRIDFORMAT
  1
GRIDFORMAT_BEGIN
 90
        0
 91
        1
 62
     0
 92
       -2
340
14
 93
        0
 40
0.045
309
GRIDFORMAT_END
 95
        8
302
GRIDFORMAT
  1
GRIDFORMAT_BEGIN
 90
        0
 91
        1
 62
     0
 92
       -2
340
14
 93
        0
 40
0.045
309
GRIDFORMAT_END
 95
       16
302
GRIDFORMAT
  1
GRIDFORMAT_BEGIN
 90
        0
 91
        1
 62
     0
 92
       -2
340
14
 93
        0
 40
0.045
309
GRIDFORMAT_END
 95
       32
302
GRIDFORMAT
  1
GRIDFORMAT_BEGIN
 90
        0
 91
        1
 62
     0
 92
       -2
340
14
 93
        0
 40
0.045
309
GRIDFORMAT_END
309
TABLEFORMAT_END
  1
CELLSTYLE_BEGIN
 90
        3
 91
        2
300
_DATA
309
CELLSTYLE_END
  0
ENDSEC
  0
SECTION
  2
ACDSDATA
 70
     2
 71
     8
  0
ACDSSCHEMA
 90
        0
  1
AcDb_Thumbnail_Schema
  2
AcDbDs::ID
280
    10
 91
        8
  2
Thumbnail_Data
280
    15
 91
        0
101
ACDSRECORD
 95
        0
 90
        1
  2
AcDbDs::TreatedAsObjectData
280
     1
291
     1
101
ACDSRECORD
 95
        0
 90
        2
  2
AcDbDs::Legacy
280
     1
291
     1
101
ACDSRECORD
  1
AcDbDs::ID
 90
        3
  2
AcDs:Indexable
280
     1
291
     1
101
ACDSRECORD
  1
AcDbDs::ID
 90
        4
  2
AcDbDs::HandleAttribute
280
     7
282
     1
  0
ACDSSCHEMA
 90
        1
  1
AcDbDs::TreatedAsObjectDataSchema
  2
AcDbDs::TreatedAsObjectData
280
     1
 91
        0
  0
ACDSSCHEMA
 90
        2
  1
AcDbDs::LegacySchema
  2
AcDbDs::Legacy
280
     1
 91
        0
  0
ACDSSCHEMA
 90
        3
  1
AcDbDs::IndexedPropertySchema
  2
AcDs:Indexable
280
     1
 91
        0
  0
ACDSSCHEMA
 90
        4
  1
AcDbDs::HandleAttributeSchema
  2
AcDbDs::HandleAttribute
280
     7
 91
        1
284
     1
  0
ACDSRECORD
 90
        0
  2
AcDbDs::ID
280
    10
320
1E
  2
Thumbnail_Data
280
    15
 94
      914
310
89504E470D0A1A0A0000000D4948445200000100000000C00803000000DC334D5400000300504C5445FFFFFFFFFFFFFFFFFF0000000000000000000000000000000000000000000000000000330000660000990000CC0000FF0033000033330033660033990033CC0033FF0066000066330066660066990066CC0066FF0099
310
000099330099660099990099CC0099FF00CC0000CC3300CC6600CC9900CCCC00CCFF00FF0000FF3300FF6600FF9900FFCC00FFFF3300003300333300663300993300CC3300FF3333003333333333663333993333CC3333FF3366003366333366663366993366CC3366FF3399003399333399663399993399CC3399FF33CC00
310
33CC3333CC6633CC9933CCCC33CCFF33FF0033FF3333FF6633FF9933FFCC33FFFF6600006600336600666600996600CC6600FF6633006633336633666633996633CC6633FF6666006666336666666666996666CC6666FF6699006699336699666699996699CC6699FF66CC0066CC3366CC6666CC9966CCCC66CCFF66FF0066
310
FF3366FF6666FF9966FFCC66FFFF9900009900339900669900999900CC9900FF9933009933339933669933999933CC9933FF9966009966339966669966999966CC9966FF9999009999339999669999999999CC9999FF99CC0099CC3399CC6699CC9999CCCC99CCFF99FF0099FF3399FF6699FF9999FFCC99FFFFCC0000CC00
310
33CC0066CC0099CC00CCCC00FFCC3300CC3333CC3366CC3399CC33CCCC33FFCC6600CC6633CC6666CC6699CC66CCCC66FFCC9900CC9933CC9966CC9999CC99CCCC99FFCCCC00CCCC33CCCC66CCCC99CCCCCCCCCCFFCCFF00CCFF33CCFF66CCFF99CCFFCCCCFFFFFF0000FF0033FF0066FF0099FF00CCFF00FFFF3300FF3333
310
FF3366FF3399FF33CCFF33FFFF6600FF6633FF6666FF6699FF66CCFF66FFFF9900FF9933FF9966FF9999FF99CCFF99FFFFCC00FFCC33FFCC66FFCC99FFCCCCFFCCFFFFFF00FFFF33FFFF66FFFF99FFFFCCFFFFFF0000000D0D0D1A1A1A2828283535354343435050505D5D5D6B6B6B787878868686939393A1A1A1AEAEAEBB
310
BBBBC9C9C9D6D6D6E4E4E4F1F1F1FFFFFF000000000000000000000000000000000000000000000000000000000000AD4AB4E40000004D4944415478DAEDD0310100000C0220FB675D8895F0132290000000000000000000000000000000000000000000000000000000000000000000000000000000000000000000000050
310
70E3E6031EB486D8104E0E4F500000000049454E44AE426082
  0
ENDSEC
  0
EOF
